User:      Hasło:     



User Info
User:
Hasło:
Stwórz kontoOdzyskiwanie hasła


Kategorie


The Founder *2016* [1080p BluRay x264 DTS-HDC] [ENG]


Kategoria: Filmy x264/h264

Gatunek: Biograficzny

Dodał:  PTMANIAC
Data dodania: 
12-04-2017
Rozmiar: 10.08 GB

Seedów: 584
Peerów: 293
Ukończone: 8970

Pobrany: 25

Kondycja:

Pobierz



Produkcja: USA
Gatunek: Biograficzny, Dramat
Premiera: 3 lutego 2017 (Polska), 24 listopada 2016 (świat)
Reżyseria: John Lee Hancock
Scenariusz: Robert D. Siegel




Ray Kroc (Keaton) to charyzmatyczny biznesmen, który od lat walczy o swoje pięć minut sławy. Jednak każdy jego pomysł przeradza się w klęskę, a szanse na realizację marzeń maleją z dnia na dzień. Niespodziewanie otrzymuje zamówienie od nieznanej mu restauracji w Kalifornii. Poznaje braci McDonaldów, którzy wymyślili nowatorski system serwowania jedzenia w 30 sekund od złożenia zamówienia. Ray, zachwycony rewolucyjnym pomysłem, namawia braci do stworzenia sieci restauracji w całych Stanach Zjednoczonych. W miarę rozrastania się fastfoodowego imperium, Ray chce mieć coraz więcej władzy. Jak wiele poświęci, aby zbudować najbardziej rozpoznawalną markę na świecie i stać się jedną z największych osobowości XX wieku?




★ Michael Keaton .... Ray Kroc
★ Nick Offerman .... Dick McDonald
★ John Carroll Lynch .... Mac McDonald
★ Linda Cardellini .... Joan Smith
★ B.J. Novak .... Harry J. Sonneborn
★ Laura Dern .... Ethel Kroc
★ Justin Randell Brooke .... Fred Turner
★ Kate Kneeland .... June Martino




Video
ID : 1
Format : AVC
Format/Info : Advanced Video Codec
Format profile : High@L4.1
Format settings, CABAC : Yes
Format settings, ReFrames : 5 frames
Codec ID : V_MPEG4/ISO/AVC
Duration : 1h 55mn
Bit rate : 11.0 Mbps
Width : 1 920 pixels
Height : 800 pixels
Display aspect ratio : 2.40:1
Frame rate mode : Constant
Frame rate : 23.976 (24000/1001) fps
Color space : YUV
Chroma subsampling : 4:2:0
Bit depth : 8 bits
Scan type : Progressive
Bits/(Pixel*Frame) : 0.299
Stream size : 8.66 GiB (86%)
Title : The.Founder.2016.1080p.BluRay.x264.DTS-HDC
Writing library : x264 core 148 r2665kMod a01e339
Encoding settings : cabac=1 / ref=5 / deblock=1:-3:-3 / analyse=0x3:0x133 / me=umh / subme=11 / psy=1 / fade_compensate=0.00 / psy_rd=0.85:0.00 / mixed_ref=1 / me_range=48 / chroma_me=1 / trellis=2 / 8x8dct=1 / cqm=0 / deadzone=21,11 / fast_pskip=0 / chroma_qp_offset=-2 / threads=24 / lookahead_threads=4 / sliced_threads=0 / nr=0 / decimate=0 / interlaced=0 / bluray_compat=0 / constrained_intra=0 / fgo=0 / bframes=8 / b_pyramid=2 / b_adapt=2 / b_bias=0 / direct=3 / weightb=1 / open_gop=0 / weightp=2 / keyint=240 / keyint_min=24 / scenecut=40 / intra_refresh=0 / rc=2pass / mbtree=0 / bitrate=11000 / ratetol=1.0 / qcomp=0.70 / qpmin=0 / qpmax=69 / qpstep=4 / cplxblur=20.0 / qblur=0.5 / ip_ratio=1.20 / pb_ratio=1.20 / aq=3:0.80
Language : English
Default : Yes
Forced : No

Audio
ID : 2
Format : DTS
Format/Info : Digital Theater Systems
Mode : 16
Format settings, Endianness : Big
Codec ID : A_DTS
Duration : 1h 55mn
Bit rate mode : Constant
Bit rate : 1 509 Kbps
Channel(s) : 6 channels
Channel positions : Front: L C R, Side: L R, LFE
Sampling rate : 48.0 KHz
Frame rate : 93.750 fps (512 spf)
Bit depth : 24 bits
Compression mode : Lossy
Stream size : 1.22 GiB (12%)
Title : The.Founder.2016.1080p.BluRay.x264.DTS-HDC
Language : English
Default : Yes
Forced : No

Text
ID : 3
Format : UTF-8
Codec ID : S_TEXT/UTF8
Codec ID/Info : UTF-8 Plain Text
Language : English
Default : Yes
Forced : No
Pliki
 [Pokaż/ukryj Pliki]
(4) files
Ocena N/A
Tracker
Podobne
Nie znaleziono podobnych tytułów!


Komentarze


Brak Komentarzy!!!