User:      Hasło:     



User Info
User:
Hasło:
Stwórz kontoOdzyskiwanie hasła


Kategorie


Banita 3D - Outcast *2014* [1080p 3D Half Over-Under DTS 5 1 AC3 BluRay x264-SONDA] [Lektor i Napisy PL] [ENG] [AT-TEAM]


Kategoria: Filmy 3D

Gatunek: Akcja / Sensacyjny

Dodał:  PTMANIAC
Data dodania: 
18-10-2016
Rozmiar: 9.88 GB

Seedów: 0
Peerów: 0
Ukończone: ---

Pobrany: 591

Kondycja:

Pobierz






Film w wersji 3D Over-Under
Do odtworzenia filmu WYMAGANY odpowiedni sprzęt (TV 3D).
==========================================

gatunek: Akcja
produkcja: Chiny,Francja,USA
premiera: 26 września 2014 (świat)
reżyseria: Nick Powell
scenariusz: James Dormer

http://imdb.com/title/tt1552224/
http://filmweb.pl/film?id=668807

OBSADA:

Hayden Christensen ... Glenn
Nicolas Cage ... Jacob
Yifei Liu ... Lian
Andy On ... Shing
Anoja Dias Bolt ... Anika
Fernando Chien ... Wu
Byron Lawson ... Kapitan Peng
Ron Smoorenburg ... Krzyżowiec

Storyline:

When the heir of the Imperial throne becomes the target of an assassination by his despised older brother, the young prince must flee the kingdom and seek protection. His only hope for survival is a reluctant war-weary crusader named Jacob, who must overcome his own personal demons and rally the assistance of a mythical outlaw known as The White Ghost. Together they must fight side by side in an epic battle to return the prince to his rightful place on the throne.

OPIS

Kiedy następca tronu staje się celem zamachu starszego brata, do pomocy rusza legendarny bojownik.

Screenshot:







General
Format                                   : Matroska
Format version                           : Version 2
File size                                : 9.88 GiB
Duration                                 : 1h 38mn
Overall bit rate                         : 14.3 Mbps
Movie name                               : OUTCAST_3D.2014 Rip by Sonda [*censored*]
Encoded date                             : UTC 2015-09-06 09:24:26
Writing application                      : mkvmerge v5.7.0 ('The Whirlwind') built on Jul  8 2012 20:08:51
Writing library                          : libebml v1.2.3 + libmatroska v1.3.0

Video
ID                                       : 1
Format                                   : AVC
Format/INFO                              : Advanced Video Codec
Format profile                           : High@L4.1
Format settings, CABAC                   : Yes
Format settings, ReFrames                : 4 frames
Codec ID                                 : V_MPEG4/ISO/AVC
Duration                                 : 1h 38mn
Bit rate                                 : 11.5 Mbps
Nominal bit rate                         : 12.5 Mbps
Width                                    : 1 920 pixels
Height                                   : 1 080 pixels
Display aspect ratio                     : 2.40:1
Frame rate mode                          : Constant
Frame rate                               : 23.976 fps
Color space                              : YUV
Chroma subsampling                       : 4:2:0
Bit depth                                : 8 bits
Scan type                                : Progressive
Bits/(Pixel*Frame)                       : 0.231
Stream size                              : 7.94 GiB (80%)
Title                                    : Rip by Sonda
Writing library                          : x264 core 148 r2579 73ae2d1
Encoding settings                        : cabac=1 / ref=4 / deblock=1:-1:-1 / rc=abr
Default                                  : Yes
Forced                                   : No

Audio #1
ID                                       : 2
Format                                   : AC-3
Format/INFO                              : Audio Coding 3
Mode extension                           : CM (complete main)
Format settings, Endianness              : Big
Codec ID                                 : A_AC3
Duration                                 : 1h 38mn
Bit rate mode                            : Constant
Bit rate                                 : 384 Kbps
Channel(s)                               : 6 channels
Channel positions                        : Front: L C R, Side: L R, LFE
Sampling rate                            : 48.0 KHz
Bit depth                                : 16 bits
Compression mode                         : Lossy
Delay relative to video                  : 14s 300ms
Stream size                              : 271 MiB (3%)
Title                                    : AC3 5.1 Lektor PL
Language                                 : Polish
Default                                  : Yes
Forced                                   : Yes

Audio #2
ID                                       : 3
Format                                   : AC-3
Format/INFO                              : Audio Coding 3
Mode extension                           : CM (complete main)
Format settings, Endianness              : Big
Codec ID                                 : A_AC3
Duration                                 : 1h 38mn
Bit rate mode                            : Constant
Bit rate                                 : 640 Kbps
Channel(s)                               : 6 channels
Channel positions                        : Front: L C R, Side: L R, LFE
Sampling rate                            : 48.0 KHz
Bit depth                                : 16 bits
Compression mode                         : Lossy
Delay relative to video                  : 14s 300ms
Stream size                              : 452 MiB (4%)
Title                                    : AC3 5.1 ENG
Language                                 : English
Default                                  : No
Forced                                   : No

Audio #3
ID                                       : 4
Format                                   : DTS
Format/INFO                              : Digital Theater Systems
Mode                                     : 16
Format settings, Endianness              : Big
Codec ID                                 : A_DTS
Duration                                 : 1h 38mn
Bit rate mode                            : Constant
Bit rate                                 : 1 509 Kbps
Channel(s)                               : 6 channels
Channel positions                        : Front: L C R, Side: L R, LFE
Sampling rate                            : 48.0 KHz
Bit depth                                : 24 bits
Compression mode                         : Lossy
Delay relative to video                  : 14s 300ms
Stream size                              : 1.04 GiB (11%)
Title                                    : DTS 5.1 ENG
Language                                 : English
Default                                  : No
Forced                                   : No

Text
ID                                       : 5
Format                                   : PGS
Muxing mode                              : zlib
Codec ID                                 : S_HDMV/PGS
Codec ID/INFO                            : The same subtitle format used on BDs/HD-DVDs
Title                                    : Napisy PL 3D
Language                                 : Polish
Default                                  : No
Forced                                   : No

Source:
V-BDRemux 2D/3D
A-Outcast (2014) BDRip 720p
Lektor PL - TV

*censored*

 
Pliki
 [Pokaż/ukryj Pliki]
(11) files
Ocena N/A
Tracker
 [Pokaż/ukryj Trackery] 
Podobne
Nie znaleziono podobnych tytułów!


Komentarze


Brak Komentarzy!!!