User:      Hasło:     



User Info
User:
Hasło:
Stwórz kontoOdzyskiwanie hasła


Kategorie


The Neon Demon *2016* [1080p WEB-DL DD5 1 H264-FGT] [ENG]


Kategoria: Filmy x264/h264

Gatunek: Thrillery / Kryminalne

Dodał:  PTMANIAC
Data dodania: 
07-09-2016
Rozmiar: 4.00 GB

Seedów: 597
Peerów: 162
Ukończone: 1407

Pobrany: 30

Kondycja:

Pobierz



Produkcja: Dania, Francja, USA
Gatunek: Thriller
Premiera: 22 lipca 2016 (Polska), 20 maja 2016 (świat)
Reżyseria: Nicolas Winding Refn
Scenariusz: Nicolas Winding Refn, Mary Laws, Polly Stenham




Jesse przyjeżdża do Los Angeles, aby rozpocząć karierę modelki. Wkrótce spotyka grupę kobiet owładniętych obsesją cielesnego piękna, które zaczynają żerować na jej młodości i witalności.




★ Elle Fanning .... Jesse
★ Karl Glusman .... Dean
★ Jena Malone .... Ruby
★ Bella Heathcote .... Gigi
★ Abbey Lee .... Sarah
★ Desmond Harrington .... Jack
★ Christina Hendricks .... Roberta Hoffmann
★ Keanu Reeves .... Hank




Video
ID : 1
Format : AVC
Format/Info : Advanced Video Codec
Format profile : High@L4
Format settings, CABAC : Yes
Format settings, ReFrames : 5 frames
Codec ID : V_MPEG4/ISO/AVC
Duration : 1h 57mn
Bit rate : 4 387 Kbps
Width : 1 916 pixels
Height : 800 pixels
Display aspect ratio : 2.40:1
Frame rate mode : Constant
Frame rate : 23.976 (24000/1001) fps
Color space : YUV
Chroma subsampling : 4:2:0
Bit depth : 8 bits
Scan type : Progressive
Bits/(Pixel*Frame) : 0.119
Stream size : 3.61 GiB (90%)
Title : The.Neon.Demon.2016.1080p.WEB-DL.DD5.1.H264-FGT
Language : English
Default : Yes
Forced : No
Color range : Limited
Color primaries : BT.709
Transfer characteristics : BT.709
Matrix coefficients : BT.709

Audio
ID : 2
Format : AC-3
Format/Info : Audio Coding 3
Mode extension : CM (complete main)
Format settings, Endianness : Big
Codec ID : A_AC3
Duration : 1h 57mn
Bit rate mode : Constant
Bit rate : 384 Kbps
Channel(s) : 6 channels
Channel positions : Front: L C R, Side: L R, LFE
Sampling rate : 48.0 KHz
Frame rate : 31.250 fps (1536 spf)
Compression mode : Lossy
Stream size : 323 MiB (8%)
Title : The.Neon.Demon.2016.1080p.WEB-DL.DD5.1.H264-FGT
Language : English
Default : Yes
Forced : No

Text
ID : 3
Format : UTF-8
Codec ID : S_TEXT/UTF8
Codec ID/Info : UTF-8 Plain Text
Language : English
Default : Yes
Forced : No
Pliki
 [Pokaż/ukryj Pliki]
(4) files
Ocena N/A
Tracker
Podobne


Komentarze


Brak Komentarzy!!!