User:      Hasło:     



User Info
User:
Hasło:
Stwórz kontoOdzyskiwanie hasła


Kategorie


The Meddler *2015 * [1080p WEB-DL DD5 1 H264-FGT] [ENG]


Kategoria: Filmy BluRay/HDTV 720p

Gatunek: Dramat / Obyczajowy

Dodał:  PTMANIAC
Data dodania: 
15-10-2016
Rozmiar: 3.58 GB

Seedów: 32
Peerów: 3
Ukończone: 7074

Pobrany: 77

Kondycja:

Pobierz






reżyseria: Lorene Scafaria
scenariusz: Lorene Scafaria
gatunek: Dramat, Komedia
produkcja: USA
premiera: 14 września 2015 (świat)



Wdowa z Nowego Jorku podąża za córką do Los Angeles w nadziei na rozpoczęcie nowego życia.







Video
ID                                       : 1
Format                                   : AVC
Format/INFO                              : Advanced Video Codec
Format profile                           : High@L4
Format settings, CABAC                   : Yes
Format settings, ReFrames                : 5 frames
Format settings, GOP                     : M=1, N=2
Codec ID                                 : V_MPEG4/ISO/AVC
Duration                                 : 1h 43mn
Bit rate                                 : 4 467 Kbps
Width                                    : 1 920 pixels
Height                                   : 796 pixels
Display aspect ratio                     : 2.40:1
Frame rate mode                          : Constant
Frame rate                               : 24.000 fps
Color space                              : YUV
Chroma subsampling                       : 4:2:0
Bit depth                                : 8 bits
Scan type                                : Progressive
Bits/(Pixel*Frame)                       : 0.122
Stream size                              : 3.23 GiB (90%)
Title                                    : The.Meddler.2015.1080p.WEB-DL.DD5.1.H264-FGT
Language                                 : English
Default                                  : Yes
Forced                                   : No
Color range                              : Limited
Color primaries                          : BT.709
Transfer characteristics                 : BT.709
Matrix coefficients                      : BT.709

Audio
ID                                       : 2
Format                                   : AC-3
Format/INFO                              : Audio Coding 3
Mode extension                           : CM (complete main)
Format settings, Endianness              : Big
Codec ID                                 : A_AC3
Duration                                 : 1h 43mn
Bit rate mode                            : Constant
Bit rate                                 : 384 Kbps
Channel(s)                               : 6 channels
Channel positions                        : Front: L C R, Side: L R, LFE
Sampling rate                            : 48.0 KHz
Frame rate                               : 31.250 fps (1536 spf)
Compression mode                         : Lossy
Stream size                              : 285 MiB (8%)
Title                                    : The.Meddler.2015.1080p.WEB-DL.DD5.1.H264-FGT
Language                                 : English
Default                                  : Yes
Forced                                   : No



http://imagecurl.com/images/10454364407091755461_thumb.png
http://imagecurl.com/images/76449819006221295462_thumb.png*censored*

 
Pliki
 [Pokaż/ukryj Pliki]
(4) files
Ocena N/A
Tracker
Podobne
Nie znaleziono podobnych tytułów!


Komentarze


Brak Komentarzy!!!