User:      Hasło:     



User Info
User:
Hasło:
Stwórz kontoOdzyskiwanie hasła


Kategorie


Kong Skull Island *2017* [1080p HDRip x264 AAC2 0-STUTTERSHIT]


Kategoria: Filmy x264/h264

Gatunek: Przygodowy

Dodał:  PTMANIAC
Data dodania: 
10-04-2017
Rozmiar: 3.92 GB

Seedów: 5550
Peerów: 3191
Ukończone: 78494

Pobrany: 136

Kondycja:

Pobierz



Produkcja: USA
Gatunek: Fantasy, Przygodowy
Premiera: 10 marca 2017 (Polska), 8 marca 2017 (świat)
Reżyseria: Jordan Vogt-Roberts
Scenariusz: Max Borenstein, Dan Gilroy, Derek Connolly




Film śledzi losy zespołu badaczy, którzy zapuszczają się w głąb niezbadanej wyspy położonej na Pacyfiku — tak samo pięknej, jak i zdradliwej — nie wiedząc, że wchodzą na teren należący do mitycznego King Konga.




★ Tom Hiddleston .... James Conrad
★ Samuel L. Jackson .... Preston Packard
★ Brie Larson .... Mason Weaver
★ John C. Reilly .... Hank Marlow
★ John Goodman .... Bill Randa
★ Corey Hawkins .... Houston Brooks
★ John Ortiz .... Victor Nieves
★ Tian Jing .... San




Video
ID : 1
Format : AVC
Format/Info : Advanced Video Codec
Format profile : High@L4.1
Format settings, CABAC : Yes
Format settings, ReFrames : 4 frames
Codec ID : avc1
Codec ID/Info : Advanced Video Coding
Duration : 1h 58mn
Bit rate : 4 500 Kbps
Width : 1 920 pixels
Height : 800 pixels
Display aspect ratio : 2.40:1
Frame rate mode : Constant
Frame rate : 29.970 (29970/1000) fps
Color space : YUV
Chroma subsampling : 4:2:0
Bit depth : 8 bits
Scan type : Progressive
Bits/(Pixel*Frame) : 0.098
Stream size : 3.73 GiB (95%)
Title : Kong.Skull.Island.2017.1080p.KORSUB.HDRip.x264.AAC2.0-STUTTERSHIT

Audio
ID : 2
Format : AAC
Format/Info : Advanced Audio Codec
Format profile : LC
Codec ID : 40
Duration : 1h 58mn
Bit rate mode : Constant
Bit rate : 224 Kbps
Channel(s) : 2 channels
Channel positions : Front: L R
Sampling rate : 44.1 KHz
Frame rate : 43.066 fps (1024 spf)
Compression mode : Lossy
Stream size : 190 MiB (5%)
Title : Kong.Skull.Island.2017.1080p.KORSUB.HDRip.x264.AAC2.0-STUTTERSHIT
Language : English
Default : Yes
Pliki
 [Pokaż/ukryj Pliki]
(3) files
Ocena N/A
Tracker
Podobne


Komentarze


Brak Komentarzy!!!