User:      Hasło:     



User Info
User:
Hasło:
Stwórz kontoOdzyskiwanie hasła


Kategorie


Shooter S03E03 - Sins of the Father [1080p NF WEB-DL H 264 DD5 1] [Lektor PL] [ENG+Napisy PL]


Kategoria: Seriale Zagraniczne


Dodał:  kori
Data dodania: 
10-07-2018
Rozmiar: 1.74 GB

Seedów: 9
Peerów: 5
Ukończone: 289

Pobrany: 32

Kondycja:

Pobierz



produkcja: USA
gatunek: Akcja, Dramat
reżyseria: Simon Cellan Jones, Christoph Schrewe, Kevin Bray
scenariusz: John Hlavin, Stephen Hunter, T.J. Brady, Rasheed Newson
muzyka: Bobby Krlic
zdjęcia: Jaime Reynoso, Anthony Hardwick
czas trwania: ok. 41 min.



Były snajper Marines powraca do służby, aby udaremnić zamach na prezydenta Stanów Zjednoczonych. Wkrótce zostaje oskarżony o morderstwo, którego nie popełnił.



Lexy Kolker - Mary Swagger
Ryan Phillippe - Bob Lee Swagger
Shantel VanSanten - Julie Swagger
Cynthia Addai-Robinson - Nadine Memphis
Eddie McClintock - Jack Payne
Omar Epps - Isaac Johnson
Josh Stewart - Solotov
Gina Gallego - Estella
David Marciano - Howard Utey
Tom Sizemore - Hugh Meachum
Patrick Sabongui - Yusuf Ali



Format : Matroska
Format version : Version 4 / Version 2
File size : 1.74 GiB
Duration : 40 min 40 s
Overall bit rate mode : Variable
Overall bit rate : 6 116 kb/s
Encoded date : UTC 2018-07-06 11:09:38

Video
ID : 1
Format : AVC
Format/INFO : Advanced Video Codec
Format profile : Main@L4
Format settings : CABAC / 3 Ref Frames
Format settings, CABAC : Yes
Format settings, ReFrames : 3 frames
Codec ID : V_MPEG4/ISO/AVC
Duration : 40 min 40 s
Bit rate mode : Variable
Bit rate : 5 360 kb/s
Maximum bit rate : 8 040 kb/s
Width : 1 920 pixels
Height : 1 080 pixels
Display aspect ratio : 16:9
Frame rate mode : Constant
Frame rate : 23.976 (24000/1001) FPS
Color space : YUV
Chroma subsampling : 4:2:0
Bit depth : 8 bits
Scan type : Progressive
Bits/(Pixel*Frame) : 0.108
Stream size : 1.52 GiB (87%)

Audio 1
ID : 2
Format : AC-3
Format/INFO : Audio Coding 3
Codec ID : A_AC3
Duration : 40 min 40 s
Bit rate mode : Constant
Bit rate : 384 kb/s
Channel(s) : 6 channels
Channel positions : Front: L C R, Side: L R, LFE
Sampling rate : 48.0 kHz
Frame rate : 31.250 FPS (1536 SPF)
Bit depth : 16 bits
Compression mode : Lossy
Stream size : 112 MiB (6%)
Language : Polish
Service kind : Complete Main
Default : Yes
Forced : Yes

Audio 2
ID : 3
Format : AC-3
Format/INFO : Audio Coding 3
Codec ID : A_AC3
Duration : 40 min 40 s
Bit rate mode : Constant
Bit rate : 384 kb/s
Channel(s) : 6 channels
Channel positions : Front: L C R, Side: L R, LFE
Sampling rate : 48.0 kHz
Frame rate : 31.250 FPS (1536 SPF)
Bit depth : 16 bits
Compression mode : Lossy
Stream size : 112 MiB (6%)
Language : English
Service kind : Complete Main
Default : No
Forced : No

Text
ID : 4
Format : UTF-8
Codec ID : S_TEXT/UTF8
Codec ID/INFO : UTF-8 Plain Text
Duration : 40 min 2 s
Bit rate : 67 b/s
Count of elements : 643
Stream size : 19.8 KiB (0%)
Language : Polish
Default : No
Forced : No*censored*
Pliki
 [Pokaż/ukryj Pliki]
(1) file
Ocena N/A
Tracker
 [Pokaż/ukryj Trackery] 
Podobne
Nie znaleziono podobnych tytułów!


Komentarze


Brak Komentarzy!!!