User:      Hasło:     



User Info
User:
Hasło:
Stwórz kontoOdzyskiwanie hasła


Kategorie


Kaktus Jack/The Villain (1979) [TVHDRip x264 by alE13 AC3][Lektor i Napisy PL/Eng][Eng]


Kategoria: Filmy BluRay/HDTV 1080p

Gatunek: Wojenne / Western

Dodał:  alE13
Data dodania: 
08-02-2019
Rozmiar: 7.50 GB

Seedów: 1
Peerów: 2
Ukończone: ---

Pobrany: 16

Kondycja:

Pobierz





http://www.filmweb.pl/film/Kaktus+Jack-1979-10980
http://www.imdb.com/title/tt0080097/

Plik zawiera Sample.

reżyseria:    Hal Needham
scenariusz:   Robert G. Kane
premiera:     1979-07-20
produkcja:    USA
gatunek:      Komedia, Western
muzyka:       Bill Justis
zdjęcia:      Bobby Byrne
czas:         1h 25mn



Handsome Stranger has agreed to escort Charming Jones to
collect her legacy from her father. But Avery Jones wants
the money, and hires notorious outlaw Cactus Jack to ambush
Charming. However, Cactus Jack is not very good at robbing
people.

Rewolwerowiec Jack Kaktus po dokonaniu niezbyt fachowego
włamania trafia do więzienia, gdzie odwiedza go pewien
nieuczciwy bankier, który proponuje mu, by ten napadł na
Charming Jones, i ukradł jej pewną skrzynkę. Problem w tym,
że podróżuje ona w towarzystwie pewnego siłacza, który
udaremnia wszelkie próby rabunku. Ona sama zaś nie może
się zdecydować, kto jest dla niej odpowiedniejszy siłacz
czy Jack.










Kirk Douglas, Arnold Schwarzenegger, Jack Elamm, Ann-Margret



The Villain (1979)-*censored* .mkv
Format                      : Matroska
Format version              : Version 4 / Version 2
File size                   : 7.43 GiB
Duration                    : 1 h 25 min
Overall bit rate            : 12.5 Mb/s
Movie name                  : The Villain (1979)-*censored*
Encoded date                : UTC 2016-11-14 06:13:13
Writing application         : mkvmerge v8.1.0 ('Psychedelic Postcard') 64bit
Writing library             : libebml v1.3.1 + libmatroska v1.4.2
Cover                       : Yes
Attachments                 : cover.jpg

Video
ID                          : 1
Format                      : AVC
Format/Info                 : Advanced Video Codec
Format profile              : High@L4.1
Format settings, CABAC      : Yes
Format settings, ReFrames   : 2 frames
Codec ID                    : V_MPEG4/ISO/AVC
Duration                    : 1 h 25 min
Bit rate                    : 12.0 Mb/s
Width                       : 1 920 pixels
Height                      : 1 080 pixels
Display aspect ratio        : 16:9
Frame rate mode             : Constant
Frame rate                  : 25.000 FPS
Color space                 : YUV
Chroma subsampling          : 4:2:0
Bit depth                   : 8 bits
Scan type                   : Progressive
Bits/(Pixel*Frame)          : 0.232
Stream size                 : 7.17 GiB (96%)
Title                       : The Villain (1979)-*censored*
Writing library             : x264 core 142
Default                     : Yes
Forced                      : No
Color range                 : Limited
Color primaries             : BT.709
Transfer characteristics    : BT.709
Matrix coefficients         : BT.709

Audio #1
ID                          : 2
Format                      : AC-3
Format/Info                 : Audio Coding 3
Mode extension              : CM (complete main)
Format settings, Endianness : Big
Codec ID                    : A_AC3
Duration                    : 1 h 25 min
Bit rate mode               : Constant
Bit rate                    : 192 kb/s
Channel(s)                  : 2 channels
Channel positions           : Front: L R
Sampling rate               : 48.0 kHz
Frame rate                  : 31.250 FPS (1536 spf)
Bit depth                   : 16 bits
Compression mode            : Lossy
Stream size                 : 117 MiB (2%)
Title                       : The Villain (1979)-*censored*
Language                    : English
Default                     : No
Forced                      : No

Audio #2
ID                          : 3
Format                      : AC-3
Format/Info                 : Audio Coding 3
Mode extension              : CM (complete main)
Format settings, Endianness : Big
Codec ID                    : A_AC3
Duration                    : 1 h 25 min
Bit rate mode               : Constant
Bit rate                    : 256 kb/s
Channel(s)                  : 2 channels
Channel positions           : Front: L R
Sampling rate               : 48.0 kHz
Frame rate                  : 31.250 FPS (1536 spf)
Bit depth                   : 16 bits
Compression mode            : Lossy
Delay relative to video     : 220 ms
Stream size                 : 156 MiB (2%)
Title                       : The Villain (1979)-*censored*
Language                    : Polish
Default                     : Yes
Forced                      : No

Text #1
ID                          : 4
Format                      : UTF-8
Codec ID                    : S_TEXT/UTF8
Codec ID/Info               : UTF-8 Plain Text
Duration                    : 1 h 16 min
Bit rate                    : 29 b/s
Count of elements           : 567
Stream size                 : 16.9 KiB (0%)
Title                       : The Villain (1979)-*censored*
Language                    : Polish
Default                     : Yes
Forced                      : No

Text #2
ID                          : 5
Format                      : UTF-8
Codec ID                    : S_TEXT/UTF8
Codec ID/Info               : UTF-8 Plain Text
Duration                    : 1 h 16 min
Bit rate                    : 33 b/s
Count of elements           : 555
Stream size                 : 18.9 KiB (0%)
Title                       : The Villain (1979)-*censored*
Language                    : English
Default                     : No
Forced                      : No
Pliki
 [Pokaż/ukryj Pliki]
(13) files
Ocena N/A
Tracker
Podobne
Nie znaleziono podobnych tytułów!


Komentarze


Brak Komentarzy!!!