User:      Hasło:     



User Info
User:
Hasło:
Stwórz kontoOdzyskiwanie hasła


Kategorie


Ostatni Samuraj-The Last Samurai (2003)[BRRip 1080p x264 by alE13 AC3/TrueHD] [Lektor i Napisy PL/ENG] [ENG]


Kategoria: Filmy x264/h264

Gatunek: Historyczne

Dodał:  PTMANIAC
Data dodania: 
27-11-2016
Rozmiar: 8.43 GB

Seedów: 0
Peerów: 0
Ukończone: ---

Pobrany: 102

Kondycja:

Pobierz






reżyseria: Edward Zwick
scenariusz: Edward Zwick,John Logan,Marshall Herskovitz
gatunek: Dramat historyczny
produkcja: USA
premiera: 22-11-2003
muzyka:         Hans Zimmer
zdjęcia:        John Toll
czas:           2h 34mn



An American military advisor embraces the Samurai culture he was hired to destroy after he is captured in battle.

Weteran wojny secesyjnej przypływa do Japonii pod koniec 1870 roku, aby szkolić żołnierzy cesarza Mutsuhito.



Tom Cruise, Ken Watanabe, Billy Connolly



The Last Samurai (2003)-*censored*.mkv
Format                      : Matroska
Format version              : Version 4 / Version 2
File size                   : 8.09 GiB
Duration                    : 2h 34mn
Overall bit rate mode       : Variable
Overall bit rate            : 7 509 Kbps
Movie name                  : The Last Samurai (2003)-*censored*
Encoded date                : UTC 2016-03-31 11:38:58
Writing application         : mkvmerge v8.1.0 ('Psychedelic Postcard') 64bit
Writing library             : libebml v1.3.1 + libmatroska v1.4.2

Video
ID                          : 1
Format                      : AVC
Format/INFO                 : Advanced Video Codec
Format profile              : High@L4.1
Format settings, CABAC      : Yes
Format settings, ReFrames   : 2 frames
Codec ID                    : V_MPEG4/ISO/AVC
Duration                    : 2h 34mn
Bit rate                    : 5 437 Kbps
Width                       : 1 920 pixels
Height                      : 796 pixels
Display aspect ratio        : 2.40:1
Frame rate mode             : Constant
Frame rate                  : 23.976 (24000/1001) fps
Color space                 : YUV
Chroma subsampling          : 4:2:0
Bit depth                   : 8 bits
Scan type                   : Progressive
Bits/(Pixel*Frame)          : 0.148
Stream size                 : 5.85 GiB (72%)
Title                       : The Last Samurai (2003)-*censored*
Writing library             : x264 core 142
Default                     : Yes
Forced                      : No
Color range                 : Limited
Color primaries             : BT.709
Transfer characteristics    : BT.709
Matrix coefficients         : BT.709

Audio #1
ID                          : 2
Format                      : TrueHD
Codec ID                    : A_TRUEHD
Duration                    : 2h 34mn
Bit rate mode               : Variable
Bit rate                    : 1 367 Kbps
Maximum bit rate            : 3 168 Kbps
Channel(s)                  : 6 channels
Channel positions           : Front: L C R, Side: L R, LFE
Sampling rate               : 48.0 KHz
Frame rate                  : 1 200.000 fps (40 spf)
Compression mode            : Lossless
Stream size                 : 1.47 GiB (18%)
Title                       : The Last Samurai (2003)-*censored*_TrueHD
Language                    : English
Default                     : No
Forced                      : No

Audio #2
ID                          : 5
Format                      : AC-3
Format/INFO                 : Audio Coding 3
Mode extension              : CM (complete main)
Format settings, Endianness : Big
Codec ID                    : A_AC3
Duration                    : 2h 34mn
Bit rate mode               : Constant
Bit rate                    : 640 Kbps
Channel(s)                  : 6 channels
Channel positions           : Front: L C R, Side: L R, LFE
Sampling rate               : 48.0 KHz
Frame rate                  : 31.250 fps (1536 spf)
Compression mode            : Lossy
Stream size                 : 706 MiB (9%)
Title                       : The Last Samurai (2003)-*censored*
Language                    : Polish
Default                     : Yes
Forced                      : No

Text #1
ID                          : 3
Format                      : UTF-8
Codec ID                    : S_TEXT/UTF8
Codec ID/INFO               : UTF-8 Plain Text
Duration                    : 2h 19mn
Bit rate                    : 5 bps
Count of elements           : 195
Stream size                 : 5.35 KiB (0%)
Title                       : The Last Samurai (2003)-*censored*_forced
Language                    : English
Default                     : No
Forced                      : No

Text #2
ID                          : 4
Format                      : UTF-8
Codec ID                    : S_TEXT/UTF8
Codec ID/INFO               : UTF-8 Plain Text
Duration                    : 2h 33mn
Bit rate                    : 31 bps
Count of elements           : 1082
Stream size                 : 35.0 KiB (0%)
Title                       : The Last Samurai (2003)-*censored*
Language                    : English
Default                     : No
Forced                      : No

Text #3
ID                          : 6
Format                      : UTF-8
Codec ID                    : S_TEXT/UTF8
Codec ID/INFO               : UTF-8 Plain Text
Duration                    : 2h 23mn
Bit rate                    : 23 bps
Count of elements           : 878
Stream size                 : 24.9 KiB (0%)
Title                       : The Last Samurai (2003)-*censored*
Language                    : Polish
Default                     : Yes
Forced                      : No

Menu
00:00:00.000                : en:Chapter 01
00:01:52.068                : en:Chapter 02
00:05:38.629                : en:Chapter 03
00:09:58.388                : en:Chapter 04
00:13:13.583                : en:Chapter 05
00:15:24.881                : en:Chapter 06
00:20:06.496                : en:Chapter 07
00:22:54.830                : en:Chapter 08
00:25:39.496                : en:Chapter 09
00:31:12.996                : en:Chapter 10
00:37:00.675                : en:Chapter 11
00:41:00.916                : en:Chapter 12
00:44:11.440                : en:Chapter 13
00:49:36.097                : en:Chapter 14
00:52:41.114                : en:Chapter 15
00:56:48.362                : en:Chapter 16
01:00:04.559                : en:Chapter 17
01:03:25.259                : en:Chapter 18
01:06:58.972                : en:Chapter 19
01:11:43.256                : en:Chapter 20
01:14:40.600                : en:Chapter 21
01:18:55.689                : en:Chapter 22
01:21:22.002                : en:Chapter 23
01:24:21.014                : en:Chapter 24
01:26:39.819                : en:Chapter 25
01:30:28.381                : en:Chapter 26
01:34:01.761                : en:Chapter 27
01:37:16.454                : en:Chapter 28
01:41:46.390                : en:Chapter 29
01:44:55.912                : en:Chapter 30
01:48:06.604                : en:Chapter 31
01:52:26.363                : en:Chapter 32
01:55:24.375                : en:Chapter 33
02:00:03.654                : en:Chapter 34
02:06:24.534                : en:Chapter 35
02:08:21.484                : en:Chapter 36
02:10:46.796                : en:Chapter 37
02:13:06.602                : en:Chapter 38
02:16:37.314                : en:Chapter 39
02:22:57.527                : en:Chapter 40
02:24:31.287                : en:Chapter 41*censored*

 
Pliki
 [Pokaż/ukryj Pliki]
(22) files
Ocena N/A
Tracker
Podobne


Komentarze


Brak Komentarzy!!!