User:      Hasło:     



User Info
User:
Hasło:
Stwórz kontoOdzyskiwanie hasła


Kategorie


Zwierzogród 3D - Zootopia *2016* [1080p 3D Half Over-Under DTS 5 1 AC3 PLSUBBED BluRay x264-SONDA] [ENG] [AT-TEAM]


Kategoria: Filmy 3D

Gatunek: Anime / Bajka

Dodał:  PTMANIAC
Data dodania: 
28-05-2016
Rozmiar: 11.11 GB

Seedów: 1
Peerów: 31
Ukończone: ---

Pobrany: 223

Kondycja:

Pobierz



Film w wersji 3D Over-Under.
Do odtworzenia filmu WYMAGANY odpowiedni sprzęt (TV 3D)
===========================================
UWAGA: Napisy na stałe wtopione w film. Zapraszam Wszystkich chętnych !!!!!!!
*censored*=

gatunek: Animacja,Komedia,Przygodowy
produkcja: USA
premiera: 19 lutego 2016 (Polska) 10 lutego 2016 (świat)
reżyseria: Byron Howard,Rich Moore
scenariusz: Jared Bush,Phil Johnston

http://www.imdb.com/title/tt2948356/

Obsada:

Ginnifer Goodwin ... Judy Hopps (głos)
Jason Bateman ... Nick Wilde (głos)
Idris Elba ... Szef Bogo (głos)
Jenny Slate ... Bellwether (głos)
Nate Torrence ... Clawhauser (głos)
Bonnie Hunt ... Bonnie Hopps (głos)
Don Lake ... Stu Hopps (głos)

Opis:

Zwierzogrodu nie można pomylić z żadnym innym miastem. Jest to jedyna w swoim rodzaju współczesna metropolia zamieszkiwana wyłącznie przez zwierzęta. W Zwierzogrodzie nie jest ważne, jakim stworzeniem jesteś - czy to największym z lwów, czy może malutką ryjówką.

Możesz tam zostać kimkolwiek chcesz. Ale nie wszystkie marzenia spełniają się od razu...Gdy do miasta przybywa ambitna policjantka Judy Hops, szybko przekonuje się, że jako pierwszy królik zatrudniony w miejscowej policji, nie będzie wcale miała łatwego życia. Robi więc wszystko, by udowodnić swoją wartość (i zdobyć upragniony awans). Na jej drodze pojawia się jednak gadatliwy i chytry lis, Nick Bajer. Chcąc wykazać się za wszelką cenę, Judy przyjmuje sprawę, w której musi rozwiązać pewną kryminalną zagadkę. Jej partnerem w śledztwie zostaje nie kto inny jak wygadany i szczwany Nick&

Storyline:

From the largest elephant to the smallest shrew, the city of Zootopia is a mammal metropolis where various animals live and thrive. When Judy Hopps becomes the first rabbit to join the police force, she quickly learns how tough it is to enforce the law. Determined to prove herself, Judy jumps at the opportunity to solve a mysterious case. Unfortunately, that means working with Nick Wilde, a wily fox who makes her job even harder.

Screenshot:







Dane techniczne:

General
Format                                   : Matroska
Format version                           : Version 2
File size                                : 11.1 GiB
Duration                                 : 1h 48mn
Overall bit rate                         : 14.7 Mbps
Movie name                               : Zootopia.3D.2016.PLSUBBED.HOU.BDRip.1080p.Sonda [*censored*]
Encoded date                             : UTC 2016-05-28 16:13:09
Writing application                      : mkvmerge v5.7.0 ('The Whirlwind') built on Jul  8 2012 20:08:51
Writing library                          : libebml v1.2.3 + libmatroska v1.3.0

Video
ID                                       : 1
Format                                   : AVC
Format/Info                              : Advanced Video Codec
Format profile                           : High@L4.1
Format settings, CABAC                   : Yes
Format settings, ReFrames                : 4 frames
Codec ID                                 : V_MPEG4/ISO/AVC
Duration                                 : 1h 48mn
Bit rate                                 : 12.5 Mbps
Width                                    : 1 920 pixels
Height                                   : 1 080 pixels
Display aspect ratio                     : 16:9 (2.39:1)
Frame rate mode                          : Constant
Frame rate                               : 23.976 fps
Color space                              : YUV
Chroma subsampling                       : 4:2:0
Bit depth                                : 8 bits
Scan type                                : Progressive
Bits/(Pixel*Frame)                       : 0.251
Stream size                              : 9.26 GiB (83%)
Title                                    : Rip by Sonda
Writing library                          : x264
Encoding settings                        : cabac=1 / ref=4 / deblock=1:1:1 / rc=2pass
Default                                  : Yes
Forced                                   : No

Audio #1
ID                                       : 2
Format                                   : AC-3
Format/Info                              : Audio Coding 3
Mode extension                           : CM (complete main)
Format settings, Endianness              : Big
Codec ID                                 : A_AC3
Duration                                 : 1h 48mn
Bit rate mode                            : Constant
Bit rate                                 : 640 Kbps
Channel count                            : 6 channels
Channel positions                        : Front: L C R, Side: L R, LFE
Sampling rate                            : 48.0 KHz
Bit depth                                : 16 bits
Compression mode                         : Lossy
Stream size                              : 497 MiB (4%)
Title                                    : AC3 5.1
Language                                 : English
Default                                  : Yes
Forced                                   : Yes

Audio #2
ID                                       : 3
Format                                   : DTS
Format/Info                              : Digital Theater Systems
Mode                                     : 16
Format settings, Endianness              : Big
Codec ID                                 : A_DTS
Duration                                 : 1h 48mn
Bit rate mode                            : Constant
Bit rate                                 : 1 509 Kbps
Channel count                            : 6 channels
Channel positions                        : Front: L C R, Side: L R, LFE
Sampling rate                            : 48.0 KHz
Bit depth                                : 24 bits
Compression mode                         : Lossy
Stream size                              : 1.14 GiB (10%)
Title                                    : DTS 5.1
Language                                 : English
Default                                  : No
Forced                                   : No

Source:
A/V-Zootopia.2016.1080p.3D.BluRay.AVC.DTS-HD.MA.7.1-RARBG
Thanks - Sonda


Pliki
 [Pokaż/ukryj Pliki]
(4) files
Ocena N/A
Tracker
Podobne


Komentarze




skorpion1234510/07/2016 19.18.46
Siema sonda masz dostęp do filmów 3d bo zależy mi żebyś ściągnął obecność 2
Sonda09/07/2016 13.19.19
Witaj gostraider15

We wszystkich moich wstawkach masz link do strony gdzie mnie możesz znaleźć tam zawsze mi możesz napisać PM a ja w miarę szybko postaram się odpisać.
A i z góry dziękuję za docenienie mojej pracy

Pozdrawiam
Sonda
gostraider1509/07/2016 10.07.39
Witaj Sonda od samego początku oglądam filmy w 3d z rodziną i znajomymi zrobione przez Ciebie pamiętam jak kupiłem telewizor 3D z dvd lecz od kwietnia tego roku gdy torrenty.org już nie istnieje straciłem nadzieję że znów odnajdę torrent na którym są twoje wstawki.Zawsze byłem wierny tylko jednej stronie z której mogłem pobrać nowości i starsze tytuły ale gdy zaczynają likfidować strony to robi mi się niedobrze.Co innego jak bym tym chandlował jeśli ja pobieram film do użytku domowego i mam go dla siebie to co w tym złego.Tak naprawdę to chciałem Tobie podziękować Sonda za wszystkie wstawki i za to że mogłem i mam możliwość oglądania filmów a jednoczesnie nie trzeba wydawać fortuny na filmy 3D gdyż w sklepach nadal nie są to małe cenhy.Mam prośbę jeśli nie jest to tajemnicą czy mógłbyś napisać jakiego programu używać by efekty 3D były takie jak w przypadku twoich filmów 3D bo ja próbowałem różnymi programami ale efekt nigdy nie był taki sam.I jeszcze jedno czy używasz jednego programu i czy można z każdego jednego formatu zrobić film takiej jakości by można odtwarzać w każdym jednym dvd 3D i jak można się z tobą skontaktować po przez pocztę.A tak jak napisałem prędzej może nie być już nigdy takiej okazji więc trzeba działać zanim znikną wszystkie strony z torentami,pozdrawiam Stanisław i jeszcze raz dziękuję w imieniu swoim innych urzytkowników i fanów filmów 3D.Proszę o kontakt bo chciałbym jeszcze poruszyć inne aspekty związane z filmami 3D pozdrawiam Stanisław.
OwiPL04/07/2016 16.31.08
Siemka sonda powiedz czy masxz dostep do filmow 3d bardzo mi zalezy zeby sciagnac nowego Batmana i Capitana Ameryke