User:      Hasło:     



User Info
User:
Hasło:
Stwórz kontoOdzyskiwanie hasła


Kategorie


Katyń - Ostatni świadek-The Last Witness *2018* [1080p] [WEB-DL] [DD5 1] [H264-FGT] [ENG] [zibi6248]


Kategoria: Filmy BluRay/HDTV 1080p

Gatunek: Historyczne

Dodał:  kori
Data dodania: 
31-05-2018
Rozmiar: 3.18 GB

Seedów: 0
Peerów: 0
Ukończone: ---

Pobrany: 108

Kondycja:

Pobierz


Produkcja: Polska, Wielka Brytania
Gatunek: Historyczny, Thriller
Premiera: 11 maja 2018 (Polska), 11 maja 2018 (świat)
Reżyseria: Piotr Szkopiak
Scenariusz: Paul Szambowski, Piotr Szkopiak
https://www.youtube.com/watch?v=CC8o60qdyq8



Powojenny Bristol. Dziennikarz Stephen Underwood (Alex Pettyfer) marzy o sławie i temacie, który wreszcie rozkręci jego karierę. Ta szansa rodzi się, gdy mężczyzna przypadkowo wpada na trop sprawy samobójstwa polskiego żołnierza przebywającego w lokalnym obozie dla uchodźców. Podążając za dziennikarskim instynktem, Stephen dociera do informacji o tym, co tak naprawdę wydarzyło się w Katyniu. Ich ujawnienie wpłynie na losy całej powojennej Europy.



★ Alex Pettyfer .... Stephen Underwood
★ Robert Więckiewicz .... Michał Łoboda
★ Talulah Riley .... Jeanette Mitchell
★ Michael Gambon .... Frank Hamilton
★ Will Thorp .... Pułkownik Janusz Pietrowski
★ Henry Lloyd-Hughes .... Mason Mitchell
★ Piotr Stramowski .... Andrzej Nowak
★ Gwilym Lee .... Kapitan John Underwood



Video
ID                                       : 1
Format                                   : AVC
Format/Info                              : Advanced Video Codec
Format profile                           : High@L4
Format settings                          : CABAC / 5 Ref Frames
Format settings, CABAC                   : Yes
Format settings, ReFrames                : 5 frames
Codec ID                                 : V_MPEG4/ISO/AVC
Duration                                 : 1 h 33 min
Bit rate                                 : 4 493 kb/s
Width                                    : 1 920 pixels
Height                                   : 800 pixels
Display aspect ratio                     : 2.40:1
Frame rate mode                          : Constant
Frame rate                               : 23.976 FPS
Color space                              : YUV
Chroma subsampling                       : 4:2:0
Bit depth                                : 8 bits
Scan type                                : Progressive
Bits/(Pixel*Frame)                       : 0.122
Stream size                              : 2.93 GiB (92%)
Title                                    : The.Last.Witness.2018.1080p.WEB-DL.DD5.1.H264-FGT
Language                                 : English
Default                                  : Yes
Forced                                   : No
Color range                              : Limited
Color primaries                          : BT.709
Transfer characteristics                 : BT.709
Matrix coefficients                      : BT.709

Audio
ID                                       : 2
Format                                   : AC-3
Format/Info                              : Audio Coding 3
Codec ID                                 : A_AC3
Duration                                 : 1 h 33 min
Bit rate mode                            : Constant
Bit rate                                 : 384 kb/s
Channel(s)                               : 6 channels
Channel positions                        : Front: L C R, Side: L R, LFE
Sampling rate                            : 48.0 kHz
Frame rate                               : 31.250 FPS (1536 SPF)
Bit depth                                : 16 bits
Compression mode                         : Lossy
Stream size                              : 256 MiB (8%)
Title                                    : The.Last.Witness.2018.1080p.WEB-DL.DD5.1.H264-FGT
Language                                 : English
Service kind                             : Complete Main
Default                                  : Yes
Forced                                   : No
Pliki
 [Pokaż/ukryj Pliki]
(2) files
Ocena N/A
Tracker
Podobne


Komentarze


Brak Komentarzy!!!