User:      Hasło:     



User Info
User:
Hasło:
Stwórz kontoOdzyskiwanie hasła


Kategorie


Odwróceni - Sezon 1 [1080p WEB-DL H 264 AC3] [PL]


Kategoria: Seriale Polskie


Dodał:  Lukarusi
Data dodania: 
14-03-2019
Rozmiar: 34.17 GB

Seedów: 0
Peerów: 0
Ukończone: ---

Pobrany: 45

Kondycja:

Pobierz



produkcja: PL
gatunek: Kryminał, Sensacyjny, Gangsterski
reżyseria: Michał Gazda, Jacek Filipiak, Jarosław Sypniewski
scenariusz: Artur Kowalewski, Piotr Pytlakowski
zdjęcia: Tomasz Augustynek, Jan Holoubek
muzyka: Łukasz Targosz
czas trwania: ok. 40-49 min.



"Odwróceni" jest serialem sensacyjnym inspirowanym prawdziwymi wydarzeniami. Dobro i zło, miłość i zdrada, życie oraz śmierć to główne tematy serialu. "Odwróceni" to 13 odcinkowa historia o losach bezwzględnego gangstera i policjanta. Osoby z pozoru tak różne łączy jedna rzecz. Miłość i przywiązanie do rodziny, a co za tym idzie związane z nią poświęcenia. Główny bohater, podinspektor Sikora, zajmuje się rozpracowywaniem mafii pruszkowskiej i wołomińskiej. Jego celem jest posadzenie bandytów na ławie oskarżonych. Jednak aby tego dokonać, potrzebuje pomocy. Jedynym sposobem na jej uzyskanie jest współpraca z "Blachą". Czy jednak policjantowi uda się "odwrócić" groźnego przestępcę? A może to on sam zostanie "odwrócony" na stronę mafii? Serial "Odwróceni" pokazuje drugie oblicze stróżów prawa jak również gangsterów. Zabójstwa, kradzieże, pościgi i aresztowania to ich życie zawodowe. W domu czekają na nich rozterki, problemy i kochająca rodzina. Co okaże się dla nich ważniejsze? Czy "odwrócą" swoje życie na dobrą stronę?



Robert Więckiewicz - Jan "Blacha" Blachowski
Artur Żmijewski - Paweł Sikora
Małgorzata Foremniak - Mira Blachowska, żona "Blachy"
Anna Radwan - Joanna Sikora, żona Pawła
Andrzej Zieliński - Andrzej Basiak "Mnich"
Maciej Kozłowski - Roman Kraus "Szybki"
Andrzej Grabowski - Jarosław Kowalik "Kowal"
Janusz Chabior - Ryszard Nowak "Rysiek"
Szymon Bobrowski - Władysław Różycki "Skalpel"
Marian Dziędziel - Franciszek Żuk "Ptasiek"
Wojciech Zieliński - Arkadiusz Cyganik "Cyga"



Format : Matroska
Format version : Version 4 / Version 2
File size : 2.87 GiB
Duration : 48 min 48 s
Overall bit rate mode : Variable
Overall bit rate : 8 409 kb/s
Encoded date : UTC 2019-03-13 13:33:51

Video
ID : 1
Format : AVC
Format/Info : Advanced Video Codec
Format profile : High@L4.1
Format settings : CABAC / 4 Ref Frames
Format settings, CABAC : Yes
Format settings, ReFrames : 4 frames
Codec ID : V_MPEG4/ISO/AVC
Duration : 48 min 48 s
Bit rate mode : Variable
Bit rate : 8 023 kb/s
Maximum bit rate : 12.0 Mb/s
Width : 1 920 pixels
Height : 1 080 pixels
Display aspect ratio : 16:9
Frame rate mode : Constant
Frame rate : 25.000 FPS
Color space : YUV
Chroma subsampling : 4:2:0
Bit depth : 8 bits
Scan type : Progressive
Bits/(Pixel*Frame) : 0.155
Stream size : 2.74 GiB (95%)
Default : Yes
Forced : Yes
Color range : Limited
Color primaries : BT.709
Transfer characteristics : BT.709
Matrix coefficients : BT.709

Audio
ID : 2
Format : AC-3
Format/Info : Audio Coding 3
Commercial name : Dolby Digital
Codec ID : A_AC3
Duration : 48 min 48 s
Bit rate mode : Constant
Bit rate : 384 kb/s
Channel(s) : 2 channels
Channel layout : L R
Sampling rate : 48.0 kHz
Frame rate : 31.250 FPS (1536 SPF)
Bit depth : 16 bits
Compression mode : Lossy
Stream size : 134 MiB (5%)
Language : Polish
Service kind : Complete Main
Default : Yes
Forced : Yes
Pliki
 [Pokaż/ukryj Pliki]
(13) files
Ocena N/A
Tracker
 [Pokaż/ukryj Trackery] 
Podobne


Komentarze


Brak Komentarzy!!!