User:      Hasło:     



User Info
User:
Hasło:
Stwórz kontoOdzyskiwanie hasła


Kategorie


Śledczy do pary - Private Eyes S02E10-13 [480p] [iT WEB-DL DD2 0] [XviD-Ralf] [Lektor PL]


Kategoria: Seriale Zagraniczne


Dodał:  andrzej559
Data dodania: 
05-11-2018
Rozmiar: 2.47 GB

Seedów: 1
Peerów: 0
Ukończone: ---

Pobrany: 8

Kondycja:

Pobierz

==================
...::: INFO :::...
==================

Ocena: IMDB - 7.2/10 (1.362) | Filmweb - 6.3/10 (76)
Produkcja: Kanada
Stacja TV: 13 Ulica
Gatunek: Dramat | Kryminał
Czas trwania: 44 min.
Premiera 2 Sezonu: 25.05.2017 - Świat
Twórcy: Tim Kilby | Shelley Eriksen

==================
...::: OPIS :::...
==================

Drugi sezon przygód byłego hokeisty Matta Shade'a i sprytnej pani detektyw Angie Everett, którzy wspólnie rozwiązują kryminalne zagadki. Choć oboje działają w inny sposób i inaczej patrzą na świat, razem dopełniają się i potrafią wyjść z każdej opresji. Muszą wykazać się przy tym sprytem, odwagą i logicznym myśleniem. Matt jest teraz pełnoprawnym partnerem Angie w jej agencji detektywistycznej Everet Investigations. Zgrany duet śledczych pozna m.in. świat szybkich pojazdów, zajrzy za kulisy Toronto Fashion Week, podczas którego zostanie wynajęty do ochrony kolekcji ubrań słynnego projektanta mody oraz będzie pracować przy akompaniamencie Toronto Symphony Orchestra.

====================
...::: OBSADA :::...
====================

Jason Priestley - Matt Shade
Cindy Sampson - Angie Everett
Ennis Esmer - Kurtis Mazhari
Barry Flatman - Don Shade
Jordyn Negri - Jules Shade
Samantha Wan - Zoe Chow

=======================
...::: DANE TECHNICZNE :::...
=======================


Format                         : AVI
Format/Info                    : Audio Video Interleave
Format profile                 : OpenDML
Format settings                : rec
File size                      : 627 MiB
Duration                       : 44 min 4 s
Overall bit rate               : 1 990 kb/s
Writing application            : AVI-Mux GUI 1.17.8.3, Feb 16 201019:42:50

Video
ID                             : 0
Format                         : MPEG-4 Visual
Format profile                 : Advanced Simple@L5
Format settings                : BVOP2
Format settings, BVOP          : 2
Format settings, QPel          : No
Format settings, GMC           : No warppoints
Format settings, Matrix        : Default (H.263)
Codec ID                       : XVID
Codec ID/Hint                  : XviD
Duration                       : 44 min 4 s
Bit rate                       : 1 600 kb/s
Width                          : 720 pixels
Height                         : 400 pixels
Display aspect ratio           : 16:9
Frame rate                     : 23.976 (24000/1001) FPS
Original frame rate            : 23.976 (23976/1000) FPS
Color space                    : YUV
Chroma subsampling             : 4:2:0
Bit depth                      : 8 bits
Scan type                      : Progressive
Compression mode               : Lossy
Bits/(Pixel*Frame)             : 0.232
Stream size                    : 504 MiB (80%)
Writing library                : XviD 67

Audio
ID                             : 1
Format                         : AC-3
Format/Info                    : Audio Coding 3
Commercial name                : Dolby Digital
Codec ID                       : 2000
Duration                       : 44 min 3 s
Bit rate mode                  : Constant
Bit rate                       : 384 kb/s
Channel(s)                     : 2 channels
Channel layout                 : L R
Sampling rate                  : 48.0 kHz
Frame rate                     : 31.250 FPS (1536 SPF)
Bit depth                      : 16 bits
Compression mode               : Lossy
Stream size                    : 121 MiB (19%)
Alignment                      : Aligned on interleaves
Interleave, duration           : 64  ms (1.53 video frames)
Interleave, preload duration   : 192  ms
Title                          : Private.Eyes.S02E10.Kissing.the.Canvas
Service kind                   : Complete Main
Pliki
 [Pokaż/ukryj Pliki]
(8) files
Ocena N/A
Tracker
Podobne


Komentarze




Mesio106/11/2018 01.28.37
Można prosić wczesniejsze odcinki 1 i 2 serii