User:      Hasło:     



User Info
User:
Hasło:
Stwórz kontoOdzyskiwanie hasła


Kategorie


Jurassic World 3D *2015* [mini-HD] [3D] [1080p] [BluRay] [AC3] [x264] [Lektor PL]


Kategoria: Filmy 3D

Gatunek: Sci-Fi / Fantasy

Dodał:  PTMANIAC
Data dodania: 
22-05-2016
Rozmiar: 3.99 GB

Seedów: 2
Peerów: 1
Ukończone: 1629

Pobrany: 703

Kondycja:

Pobierz

Film w wersji 3D Over-Under.
Do odtworzenia filmu WYMAGANY odpowiedni sprzęt (TV 3D)

INFO

Produkcja: USA
Gatunek: Akcja | Przygodowy | Sci-Fi | Thriller
Czas trwania: 124 min.
Premiera: 12.06.2015 - Polska, 29.05.2015 - Świat
Reżyseria: Colin Trevorrow
Scenariusz: Derek Connolly Colin Trevorrow Rick Jaffa Amanda Silver



OPIS

Rok 2015. Od wydarzeń ukazanych w "Parku jurajskim" mija 22 lata. Wyspa Isla Nublar wyposażona jest w pełni działający park rozrywki, w którym żyją przywrócone za pomocą klonowania dinozaury. Pewnego dnia prowadzący eksperymenty naukowcy tworzą zupełnie nowego dinozaura, który posiada cechy dwóch gadów: welociraptora i tyranozaura. Wszystko idzie zgodnie z planem do czasu, gdy stwór wymyka się z parku.



OBSADA

Chris Pratt .... Owen Grady
Bryce Dallas Howard .... Claire Dearing
Irrfan Khan .... Simon Masrani
Vincent D`Onofrio .... Vic Hoskins
Ty Simpkins .... Gray
Nick Robinson .... Zach
Jake Johnson .... Lowery
Omar Sy .... Barry



DANE TECHNICZNE

Format : Matroska
Format version : Version 4 / Version 2
File size : 3.99 GiB
Duration : 2h 4mn
Overall bit rate : 4 597 Kbps
Encoded date : UTC 2015-09-27 15:02:54
Writing application : mkvmerge v8.3.0 ('Over the Horizon') 64bit
Writing library : libebml v1.3.1 + libmatroska v1.4.2

Video
ID : 1
Format : AVC
Format/Info : Advanced Video Codec
Format profile : High@L4.1
Format settings, CABAC : Yes
Format settings, ReFrames : 4 frames
Codec ID : V_MPEG4/ISO/AVC
Duration : 2h 4mn
Bit rate : 4 149 Kbps
Width : 1 920 pixels
Height : 1 080 pixels
Display aspect ratio : 16:9 (OAR 2.00:1)
Frame rate mode : Constant
Frame rate : 23.976 fps
Color space : YUV
Chroma subsampling : 4:2:0
Bit depth : 8 bits
Scan type : Progressive
Stream size : 3.52 GiB (88%)
Writing library : x264
Encoding settings : cabac=1 / ref=4 / rc=2pass
Default : Yes
Forced : No

Audio
ID : 2
Format : AC-3
Format/Info : Audio Coding 3
Mode extension : CM (complete main)
Format settings, Endianness : Big
Codec ID : A_AC3
Duration : 2h 4mn
Bit rate mode : Constant
Bit rate : 448 Kbps
Channel(s) : 6 channels
Channel positions : Front: L C R, Side: L R, LFE
Sampling rate : 48.0 KHz
Bit depth : 16 bits
Compression mode : Lossy
Stream size : 399 MiB (10%)
Default : Yes
Forced : No

Pliki
 [Pokaż/ukryj Pliki]
(4) files
Ocena
Tracker
Podobne


Komentarze




zarembska131/10/2016 18.01.36
CZY MA KTOŚ JURASSIC WORLD 4???
dageron31/08/2016 03.00.07
[color=yellow][/color] Dzieki
krisxman01/08/2016 10.03.15
Dzięki Dezerter33