User:      Hasło:     



User Info
User:
Hasło:
Stwórz kontoOdzyskiwanie hasła


Kategorie


The Nice Guys *2016* [HDCAM AAC-PEPSi] [ENG]


Kategoria: Filmy TS/CAM

Gatunek: Komedia

Dodał:  PTMANIAC
Data dodania: 
16-06-2016
Rozmiar: 908.22 MB

Seedów: 234
Peerów: 6
Ukończone: 58699

Pobrany: 67

Kondycja:

Pobierz



Produkcja: USA, Wielka Brytania
Gatunek: Komedia kryminalna
Premiera: 20 maja 2016 (Polska), 15 maja 2016 (świat)
Reżyseria: Shane Black
Scenariusz: Shane Black, Anthony Bagarozzi





Prywatny detektyw Holland March (Ryan Gosling) i gruboskórny mięśniak do wynajęcia Jackson Healy (Russell Crowe) nie pałają do siebie sympatią. Zostają jednak wynajęci do rozwikłania tej samej sprawy zaginionej dziewczyny. Zapewne każdy prowadziłby ją na własną rękę, gdyby obaj nie stali się celem wynajętych morderców. Niechętnie muszą połączyć siły, by rozwiązać sprawę i ocalić życie. Tym bardziej, że wkrótce odkryją, że wdepnęli w większe bagno niż sądzili. Zaginięcie dziewczyny jest jedynie czubkiem góry lodowej w sprawie, której nie tknąłby nikt komu życie miłe. Historia staje się więc coraz bardziej dramatyczna, ale mimo zagrożenia Holland i Jackson skupiają się głównie na dogryzaniu sobie nawzajem.





Russell Crowe .... Jackson Healy
Ryan Gosling .... Holland March
Angourie Rice .... Holly March
Matt Bomer .... John Boy
Margaret Qualley .... Amelia Kuttner
Yaya DaCosta .... Tally
Keith David .... Starszy mężczyzna
Kim Basinger .... Judith Kutner





General
Format : Matroska
File size : 908 MiB
Duration : 1h 51mn
Overall bit rate : 1 136 Kbps

Video
ID : 1
Format : AVC
Format/Info : Advanced Video Codec
Format profile : High@L4.2
Format settings, CABAC : Yes
Format settings, ReFrames : 3 frames
Format settings, GOP : M=4, N=25
Codec ID : V_MPEG4/ISO/AVC
Duration : 1h 51mn
Bit rate : 1 000 Kbps
Width : 720 pixels
Height : 358 pixels
Display aspect ratio : 2.011
Frame rate mode : Constant
Frame rate : 29.970 (30000/1001) fps
Color space : YUV
Chroma subsampling : 4:2:0
Bit depth : 8 bits
Scan type : Progressive
Bits/(Pixel*Frame) : 0.129
Stream size : 803 MiB (88%)
Forced : No

Audio
ID : 2
Format : AAC
Format/Info : Advanced Audio Codec
Format profile : LC
Codec ID : A_AAC
Duration : 1h 51mn
Bit rate : 128 Kbps
Channel(s) : 2 channels
Channel positions : Front: L R
Sampling rate : 48.0 KHz
Frame rate : 46.875 fps (1024 spf)
Compression mode : Lossy
Stream size : 103 MiB (11%)
Default : Yes
Forced : No
Pliki
 [Pokaż/ukryj Pliki]
(2) files
Ocena N/A
Tracker
Podobne


Komentarze


Brak Komentarzy!!!