User:      Hasło:     



User Info
User:
Hasło:
Stwórz kontoOdzyskiwanie hasła


Kategorie


Marsjanin 3D - The Martian *2015* [mini-HD] [3D] [1080p] [BluRay] [AC3] [x264] [Lektor PL]


Kategoria: Filmy 3D

Gatunek: Akcja / Sensacyjny

Dodał:  PTMANIAC
Data dodania: 
20-05-2016
Rozmiar: 3.86 GB

Seedów: 0
Peerów: 0
Ukończone: 2502

Pobrany: 487

Kondycja:

Pobierz

Film w wersji 3D Over-Under.
Do odtworzenia filmu WYMAGANY odpowiedni sprzęt (TV 3D)

INFO

gatunek: Akcja, Sci-Fi
produkcja: USA
premiera: 2 października 2015 (Polska) 11 września 2015 (świat)
reżyseria: Ridley Scott
scenariusz: Drew Goddard



OPIS

Straszliwa burza piaskowa sprawia, że marsjańska ekspedycja, w której skład wchodzi Mark Watney, musi ratować się ucieczką z Czerwonej Planety. Kiedy ciężko ranny Mark odzyskuje przytomność, stwierdza, że został na Marsie sam w zdewastowanym przez wichurę obozie, z minimalnymi zapasami powietrza i żywności, a na dodatek bez łączności z Ziemią. Co gorsza, zarówno pozostali członkowie ekspedycji, jak i sztab w Houston uważają go za martwego, nikt więc nie zorganizuje wyprawy ratunkowej; zresztą, nawet gdyby wyruszyli po niego niemal natychmiast, dotarliby na Marsa długo po tym, jak zabraknie mu powietrza, wody i żywności. Czyżby to był koniec? Nic z tego. Mark rozpoczyna heroiczną walkę o przetrwanie, w której równie ważną rolę co naukowa wiedza, zdolności techniczne i pomysłowość odgrywają niezłomna determinacja i umiejętność zachowania dystansu wobec siebie i świata, który nie zawsze gra fair&



OBSADA

Matt Damon ... Mark Watney
Jessica Chastain ... Melissa Lewis
Kristen Wiig ... Annie Montrose
Jeff Daniels ... Teddy Sanders
Michael Pena ... Rick Martinez
Sean Bean ... Mitch Henderson
Kate Mara ... Beth Johanssen
Chiwetel Ejiofor ... Vincent Kapoor



DANE TECHNICZNE

General
Format : Matroska
Format version : Version 2
File size : 3.86 GiB
Duration : 2h 21mn
Overall bit rate : 3 899 Kbps
Movie name : The Martian 3D.2015.PL.H.O-U.BDRip.miniHD.1080p  
Writing application : mkvmerge v5.7.0 ('The Whirlwind') built on Jul 8 2012 20:08:51
Writing library : libebml v1.2.3 + libmatroska v1.3.0

Video
ID : 1
Format : AVC
Format/Info : Advanced Video Codec
Format profile : High@L4.1
Format settings, CABAC : Yes
Format settings, ReFrames : 4 frames
Codec ID : V_MPEG4/ISO/AVC
Duration : 2h 21mn
Bit rate : 3 450 Kbps
Width : 1 920 pixels
Height : 1 080 pixels
Display aspect ratio : 16:9 (2.39:1)
Frame rate mode : Constant
Frame rate : 23.976 fps
Color space : YUV
Chroma subsampling : 4:2:0
Bit depth : 8 bits
Scan type : Progressive
Bits/(Pixel*Frame) : 0.069
Stream size : 3.34 GiB (87%)
Title : Rip by Sonda
Writing library : x264 core 148 r2638 7599210
Encoding settings : cabac=1 / ref=4 / deblock=1:-1:-1 / rc=2pass
Default : Yes
Forced : No

Audio
ID : 2
Format : AC-3
Format/Info : Audio Coding 3
Mode extension : CM (complete main)
Format settings, Endianness : Big
Codec ID : A_AC3
Duration : 2h 21mn
Bit rate mode : Constant
Bit rate : 448 Kbps
Channel count : 6 channels
Channel positions : Front: L C R, Side: L R, LFE
Sampling rate : 48.0 KHz
Bit depth : 16 bits
Compression mode : Lossy
Stream size : 454 MiB (11%)
Title : AC3 5.1 Lektor PL
Language : Polish
Default : Yes
Forced : No
Pliki
 [Pokaż/ukryj Pliki]
(4) files
Ocena N/A
Tracker
Podobne
Nie znaleziono podobnych tytułów!


Komentarze


Brak Komentarzy!!!