User:      Hasło:     



User Info
User:
Hasło:
Stwórz kontoOdzyskiwanie hasła


Kategorie


David Attenborough: Podbój Niebios David Attenborough's: Conquest of the Skies 3D [2015][BRRip 1080p x264 by alE13 AC3] [Napisy PL/ENG] [ENG]


Kategoria: Filmy 3D

Gatunek: Dokumentalny

Dodał:  kori
Data dodania: 
03-03-2018
Rozmiar: 7.44 GB

Seedów: 0
Peerów: 0
Ukończone: ---

Pobrany: 98

Kondycja:

Pobierz

http://i.imgur.com/FtA7Tz4.png

http://www.imdb.com/title/tt3521074/

"The First To Fly" pierwszy odcinek.(Part one)
Plik zawiera Sample.

premiera:  01-01-2015
produkcja: UK
gatunek:  dokument
scenariusz: David Attenborough
reżyseria: David Lee
czas:    53min 15s





Evolutionary story of flight from the very first insects to the incredible array of creatures which rule the skies today.

Podbij Niebios 3D Davida Attenborough, to brytyjski mini serial telewizyjny o historii przyrody, śledzący ewolucję lotu zwierząt. Attenborough analizuje gady co wzleciały w powietrze, szybujące ssaki, akrobatyczne loty owadów i świat ptaków.





David Attenborough, Jesse R. Barber, Peter R. Houlihan





Conquest of the Skies 3D (2014)-*censored*_ part 1.mkv
Format           : Matroska
Format version       : Version 4 / Version 2
File size          : 7.39 GiB
Duration          : 53 min 15 s
Overall bit rate      : 19.9 Mb/s
Movie name         : Conquest of the Skies 3D (2014)-*censored*_ part 1
Encoded date        : UTC 2017-08-08 06:40:32
Writing application     : mkvmerge v8.1.0 ('Psychedelic Postcard') 64bit
Writing library       : libebml v1.3.1 + libmatroska v1.4.2
Cover            : Yes
Attachments         : Cover.jpg

Video
ID             : 1
Format           : AVC
Format/INFO         : Advanced Video Codec
Format profile       : High@L4.1
Format settings, CABAC   : Yes
Format settings, RefFrames : 2 frames
Codec ID          : V_MPEG4/ISO/AVC
Duration          : 53 min 15 s
Bit rate          : 19.2 Mb/s
Width            : 1 920 pixels
Height           : 1 080 pixels
Display aspect ratio    : 16:9
Frame rate mode       : Constant
Frame rate         : 23.976 (24000/1001) FPS
Color space         : YUV
Chroma subsampling     : 4:2:0
Bit depth          : 8 bits
Scan type          : Progressive
Bits/(Pixel*Frame)     : 0.386
Stream size         : 7.14 GiB (97%)
Title            : Conquest of the Skies 3D (2014)-*censored*_ part 1
Writing library       : x264 core 142
Default           : Yes
Forced           : No
Color range         : Limited
Color primaries       : BT.709
Transfer characteristics  : BT.709
Matrix coefficients     : BT.709

Audio
ID             : 2
Format           : AC-3
Format/INFO         : Audio Coding 3
Format settings, Endianness : Big
Codec ID          : A_AC3
Duration          : 53 min 15 s
Bit rate mode        : Constant
Bit rate          : 640 kb/s
Channel(s)         : 6 channels
Channel positions      : Front: L C R, Side: L R, LFE
Sampling rate        : 48.0 kHz
Frame rate         : 31.250 FPS (1536 SPF)
Bit depth          : 16 bits
Compression mode      : Lossy
Stream size         : 244 MiB (3%)
Title            : Conquest of the Skies 3D (2014)-*censored*_ part 1_AC3
Language          : English
Service kind        : Complete Main
Default           : No
Forced           : No

Text #1
ID             : 3
Format           : VobSub
Muxing mode         : zlib
Codec ID          : S_VOBSUB
Codec ID/INFO        : Picture based subtitle format used on DVDs
Duration          : 51 min 48 s
Bit rate          : 9 566 b/s
Count of elements      : 490
Stream size         : 3.55 MiB (0%)
Title            : Conquest of the Skies 3D (2014)-*censored*_ part 1_VobSub
Language          : Polish
Default           : No
Forced           : No

Text #2
ID             : 4
Format           : UTF-8
Codec ID          : S_TEXT/UTF8
Codec ID/INFO        : UTF-8 Plain Text
Duration          : 51 min 48 s
Bit rate          : 62 b/s
Count of elements      : 490
Stream size         : 23.9 KiB (0%)
Title            : Conquest of the Skies 3D (2014)-*censored*_ part 1_SRT
Language          : Polish
Default           : Yes
Forced           : No

Text #3
ID             : 5
Format           : VobSub
Muxing mode         : zlib
Codec ID          : S_VOBSUB
Codec ID/INFO        : Picture based subtitle format used on DVDs
Duration          : 50 min 23 s
Bit rate          : 9 420 b/s
Count of elements      : 425
Stream size         : 3.40 MiB (0%)
Title            : Conquest of the Skies 3D (2014)-*censored*_ part 1_VobSub
Language          : English
Default           : No
Forced           : No

Text #4
ID             : 6
Format           : UTF-8
Codec ID          : S_TEXT/UTF8
Codec ID/INFO        : UTF-8 Plain Text
Duration          : 50 min 23 s
Bit rate          : 63 b/s
Count of elements      : 425
Stream size         : 23.5 KiB (0%)
Title            : Conquest of the Skies 3D (2014)-*censored*_ part 1_SRT
Language          : English
Default           : No
Forced           : No

Menu
00:00:00.000        : en:1. The Dragonfly
00:11:15.424        : en:2. The Complex Mating Process
00:14:04.093        : en:3. The Atlas Beetle
00:19:57.738        : en:4. Butterflies
00:39:27.114        : en:5. Moths
00:42:16.324        : en:6. The Fly*censored*

Pliki
 [Pokaż/ukryj Pliki]
(16) files
Ocena N/A
Tracker
Podobne


Komentarze




jurek19/06/2018 19.14.33
kori wstaw więcej filmów w 3D