User:      Hasło:     



User Info
User:
Hasło:
Stwórz kontoOdzyskiwanie hasła


Kategorie


Keanu *2016* [720p HC WEBRip x264 AAC2 0-STUTTERSHIT] [ENG]


Kategoria: Filmy x264/h264

Gatunek: Komedia

Dodał:  PTMANIAC
Data dodania: 
30-05-2016
Rozmiar: 2.54 GB

Seedów: 3
Peerów: 1
Ukończone: 141167

Pobrany: 119

Kondycja:

Pobierz

INFO

Produkcja: USA
Gatunek: Komedia
Premiera: 21 kwietnia 2016 (świat)
Reżyseria: Peter Atencio
Scenariusz: Jordan Peele, Alex Rubens



OPIS

Aby odzyskać skradzionego kota, grupa przyjaciół postanawia przeniknąć do ulicznego gangu udając dilerów narkotyków.



OBSADA

Jordan Peele .... Rell Williams / Oil Dresden
Keegan-Michael Key .... Clarence Goobril / Smoke Dresden
Tiffany Haddish .... Hi-C
Method Man .... Cheddar
Darrell Britt-Gibson .... Trunk
Jason Mitchell .... Bud
Jamar Malachi Neighbors .... Bacon



DANE TECHNICZNE

Video
ID : 1
Format : AVC
Format/Info : Advanced Video Codec
Format profile : High@L4.1
Format settings, CABAC : Yes
Format settings, ReFrames : 4 frames
Codec ID : avc1
Codec ID/Info : Advanced Video Coding
Duration : 1h 38mn
Bit rate : 3 500 Kbps
Width : 1 280 pixels
Height : 534 pixels
Display aspect ratio : 2.40:1
Frame rate mode : Constant
Frame rate : 23.976 (24000/1001) fps
Color space : YUV
Chroma subsampling : 4:2:0
Bit depth : 8 bits
Scan type : Progressive
Bits/(Pixel*Frame) : 0.214
Stream size : 2.38 GiB (94%)
Title : Keanu.2016.720p.HC.WEBRip.x264.AAC2.0-STUTTERSHIT
Writing library : x264 core 148 r2597M e86f3a1
Encoding settings : cabac=1 / ref=4 / deblock=1:0:0 / analyse=0x3:0x113 / me=umh / subme=8 / psy=1 / psy_rd=1.00:0.00 / mixed_ref=1 / me_range=16 / chroma_me=1 / trellis=1 / 8x8dct=1 / cqm=0 / deadzone=21,11 / fast_pskip=1 / chroma_qp_offset=-2 / threads=40 / lookahead_threads=4 / sliced_threads=0 / nr=0 / decimate=1 / interlaced=0 / bluray_compat=0 / constrained_intra=0 / bframes=3 / b_pyramid=2 / b_adapt=2 / b_bias=0 / direct=3 / weightb=1 / open_gop=0 / weightp=2 / keyint=250 / keyint_min=23 / scenecut=40 / intra_refresh=0 / rc_lookahead=50 / rc=abr / mbtree=1 / bitrate=3500 / ratetol=1.0 / qcomp=0.60 / qpmin=0 / qpmax=69 / qpstep=4 / ip_ratio=1.40 / aq=1:1.00

Audio
ID : 2
Format : AAC
Format/Info : Advanced Audio Codec
Format profile : LC
Codec ID : 40
Duration : 1h 38mn
Bit rate mode : Constant
Bit rate : 224 Kbps
Channel(s) : 2 channels
Channel positions : Front: L R
Sampling rate : 48.0 KHz
Frame rate : 46.875 fps (1024 spf)
Compression mode : Lossy
Stream size : 157 MiB (6%)
Title : Keanu.2016.720p.HC.WEBRip.x264.AAC2.0-STUTTERSHIT
Default : Yes
Alternate group : 1
Pliki
 [Pokaż/ukryj Pliki]
(3) files
Ocena N/A
Tracker
Podobne


Komentarze


Brak Komentarzy!!!