User:      Hasło:     



User Info
User:
Hasło:
Stwórz kontoOdzyskiwanie hasła


Kategorie


Kaczki z gęsiej paczki - Duck Duck Goose *2018* [1080p NF WEBRip DDP5 1 x264-NTG] [ENG]


Kategoria: Filmy BluRay/HDTV 1080p

Gatunek: Familijne

Dodał:  kori
Data dodania: 
25-07-2018
Rozmiar: 3.99 GB

Seedów: 0
Peerów: 0
Ukończone: ---

Pobrany: 25

Kondycja:

Pobierz

Produkcja: Chiny, USA
Gatunek: Animacja, Familijny, Komedia
Premiera: 11 maja 2018 (Polska), 9 marca 2018 (świat)
Reżyseria: Christopher Jenkins
Scenariusz: Rob Muir, Christopher Jenkins




Benek jest dumną gęsią, beztroskim kawalerem i pozwalającym sobie na wszystko lekkoduchem. Zdecydowanie woli podniebne akrobacje i kaskaderskie popisy od ćwiczeń przed czekającą go migracją do ciepłych krajów. Podczas jednego z popisowych przelotów Benka coś idzie nie tak i gąsior wpada prosto w stado kaczątek. W wyniku wypadku dwa pisklaki zostają oddzielone od reszty swoich braci i sióstr a główny bohater ulega kontuzji, która nie pozwala mu na wzbicie się w powietrze. Zamiast dalej latać ? zmuszeni będą człapać. Benek musi teraz zadbać o maluchy i wspólnie z nimi wyrusza w podróż życia ? przez malownicze góry, wspaniałe jeziora, bambusowe lasy i jaskinie pełne tajemnic. Dzięki tej przygodzie, Benek przekona się o sile bezwarunkowej miłości i stanie się dla kaczątek najlepszym ojcem na całym ptasim świecie.




? Maciej Stuhr .... Benek
? Julia Kamińska .... Diana
? Waldemar Barwiński .... Wiewiór Karol
? Jacek Lenartowicz .... Szef stada
? Stefan Knothe .... Żółw Leszek
? Wojciech Paszkowski .... Gieniu
? Dariusz Błażejewski .... Franciszek
? Elżbieta Jędrzejewska .... Elżunia




Video
ID : 1
Format : AVC
Format/Info : Advanced Video Codec
Format profile : Main@L4
Format settings : CABAC / 3 Ref Frames
Format settings, CABAC : Yes
Format settings, ReFrames : 3 frames
Codec ID : V_MPEG4/ISO/AVC
Duration : 1 h 32 min
Bit rate mode : Variable
Bit rate : 5 620 kb/s
Maximum bit rate : 8 430 kb/s
Width : 1 920 pixels
Height : 1 080 pixels
Display aspect ratio : 16:9
Frame rate mode : Constant
Frame rate : 23.976 (24000/1001) FPS
Color space : YUV
Chroma subsampling : 4:2:0
Bit depth : 8 bits
Scan type : Progressive
Bits/(Pixel*Frame) : 0.113
Stream size : 3.58 GiB (90%)
Writing library : x264 core 148 r2715 7e75228
Default : Yes
Forced : No

Audio
ID : 2
Format : E-AC-3
Format/Info : Enhanced Audio Coding 3
Codec ID : A_EAC3
Duration : 1 h 32 min
Bit rate mode : Constant
Bit rate : 640 kb/s
Channel(s) : 6 channels
Channel positions : Front: L C R, Side: L R, LFE
Sampling rate : 48.0 kHz
Frame rate : 187.500 FPS (256 SPF)
Compression mode : Lossy
Stream size : 422 MiB (10%)
Title : English
Language : English
Service kind : Complete Main
Default : Yes
Forced : No

Text #1
ID : 3
Format : UTF-8
Codec ID : S_TEXT/UTF8
Codec ID/Info : UTF-8 Plain Text
Duration : 1 h 30 min
Bit rate : 81 b/s
Count of elements : 1641
Stream size : 54.3 KiB (0%)
Title : SDH
Language : English
Default : Yes
Forced : No

Text #2
ID : 4
Format : UTF-8
Codec ID : S_TEXT/UTF8
Codec ID/Info : UTF-8 Plain Text
Duration : 1 h 30 min
Bit rate : 53 b/s
Count of elements : 1168
Stream size : 35.5 KiB (0%)
Language : Danish
Default : No
Forced : No

Text #3
ID : 5
Format : UTF-8
Codec ID : S_TEXT/UTF8
Codec ID/Info : UTF-8 Plain Text
Duration : 1 h 30 min
Bit rate : 56 b/s
Count of elements : 985
Stream size : 37.5 KiB (0%)
Language : German
Default : No
Forced : No

Text #4
ID : 6
Format : UTF-8
Codec ID : S_TEXT/UTF8
Codec ID/Info : UTF-8 Plain Text
Duration : 1 h 30 min
Bit rate : 55 b/s
Count of elements : 1190
Stream size : 36.4 KiB (0%)
Language : Spanish
Default : No
Forced : No

Text #5
ID : 7
Format : UTF-8
Codec ID : S_TEXT/UTF8
Codec ID/Info : UTF-8 Plain Text
Duration : 1 h 30 min
Bit rate : 51 b/s
Count of elements : 921
Stream size : 34.0 KiB (0%)
Language : Finnish
Default : No
Forced : No

Text #6
ID : 8
Format : UTF-8
Codec ID : S_TEXT/UTF8
Codec ID/Info : UTF-8 Plain Text
Duration : 1 h 30 min
Bit rate : 56 b/s
Count of elements : 984
Stream size : 37.5 KiB (0%)
Language : French
Default : No
Forced : No

Text #7
ID : 9
Format : UTF-8
Codec ID : S_TEXT/UTF8
Codec ID/Info : UTF-8 Plain Text
Duration : 1 h 30 min
Bit rate : 48 b/s
Count of elements : 982
Stream size : 31.9 KiB (0%)
Language : Norwegian Bokmal
Default : No
Forced : No

Text #8
ID : 10
Format : UTF-8
Codec ID : S_TEXT/UTF8
Codec ID/Info : UTF-8 Plain Text
Duration : 1 h 30 min
Bit rate : 53 b/s
Count of elements : 987
Stream size : 35.2 KiB (0%)
Language : Dutch
Default : No
Forced : No

Text #9
ID : 11
Format : UTF-8
Codec ID : S_TEXT/UTF8
Codec ID/Info : UTF-8 Plain Text
Duration : 1 h 30 min
Bit rate : 51 b/s
Count of elements : 1161
Stream size : 34.4 KiB (0%)
Title : Brazilian
Language : Portuguese
Default : No
Forced : No

Text #10
ID : 12
Format : UTF-8
Codec ID : S_TEXT/UTF8
Codec ID/Info : UTF-8 Plain Text
Duration : 1 h 30 min
Bit rate : 52 b/s
Count of elements : 1018
Stream size : 35.0 KiB (0%)
Language : Swedish
Default : No
Forced : No

Text #11
ID : 13
Format : UTF-8
Codec ID : S_TEXT/UTF8
Codec ID/Info : UTF-8 Plain Text
Duration : 1 h 30 min
Bit rate : 131 b/s
Count of elements : 986
Stream size : 87.2 KiB (0%)
Language : Thai
Default : No
Forced : No

Text #12
ID : 14
Format : UTF-8
Codec ID : S_TEXT/UTF8
Codec ID/Info : UTF-8 Plain Text
Duration : 1 h 30 min
Bit rate : 54 b/s
Count of elements : 1175
Stream size : 36.0 KiB (0%)
Title : Traditional
Language : Chinese
Default : No
Forced : No
Pliki
 [Pokaż/ukryj Pliki]
(2) files
Ocena N/A
Tracker
Podobne


Komentarze


Brak Komentarzy!!!