User:      Hasło:     



User Info
User:
Hasło:
Stwórz kontoOdzyskiwanie hasła


Kategorie


Mali mistrzowie sztuki przetrwania Little Monsters Hide & Cheat 3D [2012][BRRip 1080p x264 by alE13 AC3] [Lektor i Napisy PL/ENG] [At]


Kategoria: Filmy 3D

Gatunek: Dokumentalny

Dodał:  kori
Data dodania: 
24-02-2018
Rozmiar: 7.85 GB

Seedów: 1
Peerów: 4
Ukończone: 17

Pobrany: 87

Kondycja:

Pobierz


https://i.imgur.com/MmDhNGh.jpg

Film w wersji 3D Half Over/Under.
Uwaga, brakuje audio PL ok. półtorej min. dodałam w to miejsce napisy PL.
Lektor: Krystyna Czubówna.
Plik zawiera Sample.

produkcja: Austria
data:    2012
reżyseria: Kurt Mündl
scenariusz: Kurt Mündl
gatunek:  dokument, przyrodniczy
zdjęcia:  Franz Cee, Kurt Mündl
czas:    00:51:48



Presenting some of the animal kingdom's strangest survival strategies. The most startling behaviour
patterns aren't found among the classic big animals such as lions or polar bears, but among nature's
smaller creatures: Poison dart frogs, chameleons, praying mantises and scorpions, to name only a few.

Większe zwierzęta, jak słonie, krokodyle, a nawet koty czy psy posiadaj± siłę, która ułatwia im przetrwanie.
Tymczasem mniejsze stworzenia s± zmuszone używać wysublimowanych metod, by przeżyć. W¶ród wypracowanych
sposobów na utrzymanie się przy życiu jest kamuflaż, trucizna w skórze, jaskrawe barwy, jad czy kolce. Dzięki
trójwymiarowej technologii i kamerom pozwalaj±cym na duże zbliżenia widzowie mog± z bliska zobaczyć, jak skorpiony,
żaby, owady i paj±ki stosuj± te najbardziej wyszukane techniki obrony i ataku.



Little Monsters Hide & Cheat 3D (2012)-*censored*.mkv
Format           : Matroska
Format version       : Version 4 / Version 2
File size          : 7.81 GiB
Duration          : 51 min 48 s
Overall bit rate      : 21.6 Mb/s
Movie name         : Little Monsters Hide & Cheat 3D (2012)-*censored*
Encoded date        : UTC 2017-10-01 07:40:26
Writing application     : mkvmerge v8.1.0 ('Psychedelic Postcard') 64bit
Writing library       : libebml v1.3.1 + libmatroska v1.4.2
Cover            : Yes
Attachments         : Cover.jpg

Video
ID             : 1
Format           : AVC
Format/INFO         : Advanced Video Codec
Format profile       : High@L4.1
Format settings, CABAC   : Yes
Format settings, RefFrames : 2 frames
Codec ID          : V_MPEG4/ISO/AVC
Duration          : 51 min 48 s
Bit rate          : 20.7 Mb/s
Width            : 1 920 pixels
Height           : 1 080 pixels
Display aspect ratio    : 16:9
Frame rate mode       : Constant
Frame rate         : 23.976 (24000/1001) FPS
Color space         : YUV
Chroma subsampling     : 4:2:0
Bit depth          : 8 bits
Scan type          : Progressive
Bits/(Pixel*Frame)     : 0.416
Stream size         : 7.48 GiB (96%)
Title            : Little Monsters Hide & Cheat 3D (2012)-*censored*
Writing library       : x264 core 142
Default           : Yes
Forced           : No
Color range         : Limited
Color primaries       : BT.709
Transfer characteristics  : BT.709
Matrix coefficients     : BT.709

Audio #1
ID             : 2
Format           : AC-3
Format/INFO         : Audio Coding 3
Format settings, Endianness : Big
Codec ID          : A_AC3
Duration          : 51 min 48 s
Bit rate mode        : Constant
Bit rate          : 640 kb/s
Channel(s)         : 6 channels
Channel positions      : Front: L C R, Side: L R, LFE
Sampling rate        : 48.0 kHz
Frame rate         : 31.250 FPS (1536 SPF)
Bit depth          : 16 bits
Compression mode      : Lossy
Stream size         : 237 MiB (3%)
Title            : Little Monsters Hide & Cheat 3D (2012)-*censored*_AC3
Language          : English
Service kind        : Complete Main
Default           : No
Forced           : No

Audio #2
ID             : 3
Format           : AC-3
Format/INFO         : Audio Coding 3
Codec ID          : A_AC3
Duration          : 50 min 1 s
Bit rate          : 256 kb/s
Channel(s)         : 2 channels
Sampling rate        : 48.0 kHz
Frame rate         : 31.250 FPS (1536 SPF)
Compression mode      : Lossy
Stream size         : 91.6 MiB (1%)
Title            : Little Monsters Hide & Cheat 3D (2012)-*censored*
Language          : Polish (Krystyna Czubówna)
Default           : Yes
Forced           : No

Text #1
ID             : 4
Format           : UTF-8
Codec ID          : S_TEXT/UTF8
Codec ID/INFO        : UTF-8 Plain Text
Duration          : 1 min 34 s
Bit rate          : 57 b/s
Count of elements      : 12
Stream size         : 681 Bytes (0%)
Title            : Little Monsters Hide & Cheat 3D (2012)-*censored*_SRT
Language          : Polish
Default           : Yes
Forced           : No

Text #2
ID             : 5
Format           : UTF-8
Codec ID          : S_TEXT/UTF8
Codec ID/INFO        : UTF-8 Plain Text
Duration          : 51 min 3 s
Bit rate          : 60 b/s
Count of elements      : 416
Stream size         : 22.6 KiB (0%)
Title            : Little Monsters Hide & Cheat 3D (2012)-*censored*
Language          : English
Default           : No
Forced           : No

Menu
00:00:00.000        : :1
00:10:07.982        : :2
00:20:10.000        : :3
00:29:48.954        : :4
00:40:05.987        : :5*censored*
Pliki
 [Pokaż/ukryj Pliki]
(13) files
Ocena N/A
Tracker
Podobne
Nie znaleziono podobnych tytułów!


Komentarze


Brak Komentarzy!!!