User:      Hasło:     



User Info
User:
Hasło:
Stwórz kontoOdzyskiwanie hasła


Kategorie


Barry Seal: Król przemytu /


Kategoria: Filmy HD 1080p AVC

Gatunek: Dramat / Obyczajowy

Dodał:  kostas13
Data dodania: 
21-02-2018
Rozmiar: 39.01 GB

Seedów: 1
Peerów: 0
Ukończone: ---

Pobrany: 104

Kondycja:

Pobierz


reżyseria: Doug Liman
scenariusz: Gary Spinelli
gatunek: DramatPolityczny
produkcja: USA
premiera: 25 sierpnia 2017 (Polska) 16 sierpnia 2017 (świat)


Historia Barry'ego Seala, człowieka, który jednocześnie pracował dla CIA oraz kartelu.


Tom Cruise / Barry Seal
Domhnall Gleeson Monty "Schafer"
Sarah Wright Lucy Seal
Caleb Landry Jones JB


Wideo: AVC / H.264, 1920 x 1080 (16: 9), ~ 23261 kb / s, 23,976 fps
Audio # 1: DTS-HD MA, 7.1-X, 48 kHz, 6857 kbps, 24-bitowy | Angielski
Audio # 2: DTS, 2,0, 48 kHz, 256 kb / s, 24-bitowe | Angielski
Audio # 3: DTS, 5.1, 48 kHz, 768 kb / s, 24-bitowe | Hiszpański
Audio # 4: DTS, 5.1, 48 kHz, 768 kb / s, 24-bitowe | Portugalski
Audio # 5: DTS, 5.1, 48 kHz, 768 kb / s, 24-bitowe | Angielski
Audio # 6: DTS, 5.1, 48 kHz, 768 kb / s, 24-bitowe | Czeski
Audio # 7: DTS, 5.1, 48 kHz, 768 kb / s, 24-bitowe | Węgierski
Audio # 8: DTS, 5.1, 48 kHz, 768 kbps, 24-bitowe | Polski
Audio # 9: DTS, 5.1, 48 kHz, 768 kb / s, 24-bitowe | Tajski

DISC INFO:

Disc Title:     AMERICAN_MADE_EUR_BLUEBIRD
Disc Size:      41 890 192 175 bytes
Protection:     AACS
BD-Java:        Yes
BDInfo:         0.5.8

PLAYLIST REPORT:

Name:                   00800.MPLS
Length:                 1:54:58.891 (h:m:s.ms)
Size:                   33 489 063 936 bytes
Total Bitrate:          38,83 Mbps

(*) Indicates included stream hidden by this playlist.

VIDEO:

Codec                   Bitrate             Description
-----                   -------             -----------
MPEG-4 AVC Video        23260 kbps          1080p / 23,976 fps / 16:9 / High Profile 4.1

AUDIO:

Codec                           Language        Bitrate         Description
-----                           --------        -------         -----------
DTS-HD Master Audio             English         6857 kbps       7.1 / 48 kHz / 6857 kbps / 24-bit (DTS Core: 5.1 / 48 kHz / 1509 kbps / 24-bit)
DTS Audio                       English         256 kbps        2.0 / 48 kHz / 256 kbps / 24-bit
DTS Audio                       Spanish         768 kbps        5.1 / 48 kHz / 768 kbps / 24-bit
DTS Audio                       Portuguese      768 kbps        5.1 / 48 kHz / 768 kbps / 24-bit
DTS Audio                       Russian         768 kbps        5.1 / 48 kHz / 768 kbps / 24-bit
DTS Audio                       Czech           768 kbps        5.1 / 48 kHz / 768 kbps / 24-bit
DTS Audio                       Hungarian       768 kbps        5.1 / 48 kHz / 768 kbps / 24-bit
DTS Audio                       Polish          768 kbps        5.1 / 48 kHz / 768 kbps / 24-bit
DTS Audio                       Thai            768 kbps        5.1 / 48 kHz / 768 kbps / 24-bit

SUBTITLES:

Codec                           Language        Bitrate         Description
-----                           --------        -------         -----------
Presentation Graphics           English         42,321 kbps
Presentation Graphics           Spanish         30,922 kbps
Presentation Graphics           Portuguese      31,212 kbps
Presentation Graphics           Turkish         33,876 kbps
Presentation Graphics           Russian         32,691 kbps
Presentation Graphics           Czech           28,372 kbps
Presentation Graphics           Hungarian       31,535 kbps
Presentation Graphics           Polish          26,639 kbps
Presentation Graphics           Thai            27,514 kbps
Presentation Graphics           Indonesian      31,181 kbps
Presentation Graphics           Korean          18,392 kbps
Presentation Graphics           Greek           35,361 kbps
Presentation Graphics           Bulgarian       31,587 kbps
Presentation Graphics           Croatian        31,355 kbps
Presentation Graphics           Estonian        32,126 kbps
Presentation Graphics           Latvian         25,234 kbps
Presentation Graphics           Lithuanian      33,232 kbps
Presentation Graphics           Romanian        26,531 kbps
Presentation Graphics           Slovenian       28,933 kbps
* Presentation Graphics         Chinese         22,348 kbps
* Presentation Graphics         Chinese         28,360 kbps
* Presentation Graphics         Chinese         24,335 kbps
Presentation Graphics           English         0,234 kbps
Presentation Graphics           Spanish         1,119 kbps
Presentation Graphics           Portuguese      1,327 kbps
Presentation Graphics           Russian         1,726 kbps
Presentation Graphics           Czech           0,864 kbps
Presentation Graphics           Hungarian       1,087 kbps
Presentation Graphics           Thai            0,485 kbps

FILES:

Name            Time In         Length          Size            Total Bitrate
----            -------         ------          ----            -------------
00802.M2TS      0:00:00.000     1:47:33.280     31 375 454 208  38 896
00803.M2TS      1:47:33.280     0:00:09.426     47 112 192      39 985
00804.M2TS      1:47:42.706     0:07:16.185     2 066 497 536   37 901
ScreenyScreen 1: ? Screen 1: ? Screen 1: ? Screen 1: ?
Pliki
 [Pokaż/ukryj Pliki]
(617) files
Ocena N/A
Tracker
Podobne


Komentarze


Brak Komentarzy!!!