User:      Hasło:     



User Info
User:
Hasło:
Stwórz kontoOdzyskiwanie hasła


Kategorie


Nightflyers - Sezon 1 [1080p NF WEB-DL H 264 DD5 1] [Lektor PL]


Kategoria: Seriale Zagraniczne


Dodał:  Lukarusi
Data dodania: 
02-02-2019
Rozmiar: 11.72 GB

Seedów: 0
Peerów: 0
Ukończone: ---

Pobrany: 37

Kondycja:

Pobierz



produkcja: USA
gatunek: Sci-fi, Fantasy
reżyseria: Andrew McCarthy, Mark Tonderai, M.J. Bassett
scenariusz: George R.R. Martin, David Schneiderman, Jeff Buhler
muzyka: Will Bates
zdjęcia: Gavin Struthers, Peter Robertson, Markus Förderer
czas trwania: ok. 40-58 min.



Serial oparty na opowiadaniu George’a R. R. Martina. Ośmiu naukowców i telepata wyruszają w trudną międzygwiezdną ekspedycję, aby nawiązać kontakt z obcą cywilizacją.



Eoin Macken - Karl D'Branin
David Ajala - Roy Eris
Jodie Turner-Smith - Melantha Jhirl
Angus Sampson - Rowan
Sam Strike - Thale
Maya Eshet - Lommie
Brían F. O'Byrne - Auggie
Gretchen Mol - Dr. Agatha Matheson



Format : Matroska
Format version : Version 4 / Version 2
File size : 1.50 GiB
Duration : 58 min 21 s
Overall bit rate : 3 685 kb/s
Encoded date : UTC 2019-02-02 16:32:58

Video
ID : 1
Format : AVC
Format/Info : Advanced Video Codec
Format profile : Main@L4
Format settings : CABAC / 3 Ref Frames
Format settings, CABAC : Yes
Format settings, ReFrames : 3 frames
Codec ID : V_MPEG4/ISO/AVC
Duration : 58 min 21 s
Bit rate : 3 299 kb/s
Width : 1 920 pixels
Height : 1 080 pixels
Display aspect ratio : 16:9
Frame rate mode : Constant
Frame rate : 23.976 (24000/1001) FPS
Color space : YUV
Chroma subsampling : 4:2:0
Bit depth : 8 bits
Scan type : Progressive
Bits/(Pixel*Frame) : 0.066
Stream size : 1.34 GiB (90%)
Default : Yes
Forced : Yes

Audio
ID : 2
Format : AC-3
Format/Info : Audio Coding 3
Commercial name : Dolby Digital
Codec ID : A_AC3
Duration : 58 min 21 s
Bit rate mode : Constant
Bit rate : 384 kb/s
Channel(s) : 6 channels
Channel layout : L R C LFE Ls Rs
Sampling rate : 48.0 kHz
Frame rate : 31.250 FPS (1536 SPF)
Bit depth : 16 bits
Compression mode : Lossy
Stream size : 160 MiB (10%)
Language : Polish
Service kind : Complete Main
Default : Yes
Forced : Yes

Text
ID : 3
Format : UTF-8
Codec ID : S_TEXT/UTF8
Codec ID/Info : UTF-8 Plain Text
Duration : 43 min 5 s
Bit rate : 1 b/s
Count of elements : 20
Stream size : 591 Bytes (0%)
Default : Yes
Forced : Yes
Pliki
 [Pokaż/ukryj Pliki]
(10) files
Ocena
Tracker
 [Pokaż/ukryj Trackery] 
Podobne
Nie znaleziono podobnych tytułów!


Komentarze




sixu02/02/2019 21.06.16
ten serial to ocean głupoty