User:      Hasło:     



User Info
User:
Hasło:
Stwórz kontoOdzyskiwanie hasła


Kategorie


Spider-Man: Homecoming 3D *2017* (16:9) [mini-HD 1080p 3D Half Over-Under AC3 BluRay x264-SONDA] [Dubbing PL]


Kategoria: Filmy 3D

Gatunek: Sci-Fi / Fantasy

Dodał:  PTMANIAC
Data dodania: 
29-10-2017
Rozmiar: 3.95 GB

Seedów: 39
Peerów: 30
Ukończone: 393

Pobrany: 112

Kondycja:

Pobierz

[img]https://i.imgur.com/44cnzPR.jpg[/img]



Film w wersji 3D Over-Under.
Do odtworzenia filmu WYMAGANY odpowiedni sprzęt (TV 3D)
==========================================
UWAGA: Po prawej i lewej stronie obraz został wycięty do 245p,
co umożliwia wyświetlanie na telewizorze pełnoekranowego obrazu
(bez czarnych pasów) w formacie (16:9) bez zmiany proporcji.
Taki zabieg moim zdaniem poprawia dużo bardziej efekt 3D.
Jedyną wadą jest przycięcie obrazu po obu bokach ekranu,
no ale niestety coś za coś:)
Wszystkich chętnych zapraszam do przetestowania !!!!!
=============================================


Kopia mini-HD 1080p = 3,94 GB




gatunek: Akcja,Sci-Fi
produkcja: USA
premiera: 14 lipca 2017 (Polska) 28 czerwca 2017 (świat)
reżyseria: Jon Watts
scenariusz: John Francis Daley,Jonathan Goldstein,Jon Watts,Christopher Ford,Chris McKenna,Erik Sommers

[img]http://www.imdb.com/title/tt2250912/[/img]



Jakub Gawlik ... Peter Parker / Spider-Man (polski dubbing)
Mariusz Bonaszewski ... Tony Stark / Iron Man (polski dubbing)
Paweł Wawrzecki ... Adrian Toomes / Vulture (polski dubbing)
Sebastian Perdek ... Ned Leeds (polski dubbing)
Kinga Ilgner ... May Parker (polski dubbing)
Józef Pawłowski ... Flash Thompson (polski dubbing)
Wiktoria Wolańska ... Michelle (polski dubbing)
Michał Piela ... Happy Hogan (polski dubbing)



Młody Peter Parker/Spider-Man (Tom Holland), poszukuje swojego nowego ego superbohatera. Zafascynowany przygodą z Avengersami, wraca do domu, gdzie mieszka wraz z ciotką May (Marisa Tomei). Cały czas pozostaje pod czujnym okiem swego mentora – Tony’ego Starka (Robert Downey Jr.). Próbuje wrócić do normalnego życia, unikając myśli, że jest kimś więcej niż tylko "Spider-Manem z sąsiedztwa". Jednak kiedy pojawia się Vulture (Michael Keaton), nowy groźny wróg, wszystko, co dla Petera ważne, staje się zagrożone.

Storyline:

Thrilled by his experience with the Avengers, Peter returns home, where he lives with his Aunt May, under the watchful eye of his new mentor Tony Stark, Peter tries to fall back into his normal daily routine - distracted by thoughts of proving himself to be more than just your friendly neighborhood Spider-Man - but when the Vulture emerges as a new villain, everything that Peter holds most important will be threatened.



[img]https://i.imgur.com/mIRLAtZ.jpg[/img]
[img]https://i.imgur.com/HpQ18xD.jpg[/img]
[img]https://i.imgur.com/95ulK1f.jpg[/img]
[img]https://i.imgur.com/rmTJQj0.jpg[/img]




General
Format                                   : Matroska
Format version                           : Version 2
File size                                : 3.95 GiB
Duration                                 : 2h 13mn
Overall bit rate                         : 4 235 Kbps
Movie name                               : SpiderMan.Homecoming.3D.2017.PL.HOU(16.9)BDRip.1080p.Sonda
Encoded date                             : UTC 2017-10-29 16:55:09
Writing application                      : mkvmerge v5.7.0 ('The Whirlwind') built on Jul  8 2012 20:08:51
Writing library                          : libebml v1.2.3 + libmatroska v1.3.0

Video
ID                                       : 1
Format                                   : AVC
Format/Info                              : Advanced Video Codec
Format profile                           : High@L4.1
Format settings, CABAC                   : Yes
Format settings, ReFrames                : 4 frames
Codec ID                                 : V_MPEG4/ISO/AVC
Duration                                 : 2h 13mn
Bit rate                                 : 3 850 Kbps
Width                                    : 1 920 pixels
Height                                   : 1 080 pixels
Display aspect ratio                     : 16:9
Frame rate mode                          : Constant
Frame rate                               : 23.976 fps
Color space                              : YUV
Chroma subsampling                       : 4:2:0
Bit depth                                : 8 bits
Scan type                                : Progressive
Bits/(Pixel*Frame)                       : 0.077
Stream size                              : 3.51 GiB (89%)
Title                                    : Rip by Sonda
Writing library                          : x264 core 148 r2744 b97ae06
Encoding settings                        : cabac=1 / ref=4 / deblock=1:-1:-1 / rc=2pass
Default                                  : Yes
Forced                                   : No
Color primaries                          : BT.709
Transfer characteristics                 : BT.709
Matrix coefficients                      : BT.709

Audio
ID                                       : 2
Format                                   : AC-3
Format/Info                              : Audio Coding 3
Mode extension                           : CM (complete main)
Format settings, Endianness              : Big
Codec ID                                 : A_AC3
Duration                                 : 2h 13mn
Bit rate mode                            : Constant
Bit rate                                 : 384 Kbps
Channel count                            : 6 channels
Channel positions                        : Front: L C R, Side: L R, LFE
Sampling rate                            : 48.0 KHz
Bit depth                                : 16 bits
Compression mode                         : Lossy
Stream size                              : 367 MiB (9%)
Title                                    : AC3 5.1 Dubbing PL
Language                                 : Polish
Default                                  : Yes
Forced                                   : No

Source:
V-BDRemux 2D/3D
Dubbing PL - BD
Thanks - Sonda
ScreenyScreen 1: ? Screen 1: ? Screen 1: ? Screen 1: ?
Pliki
 [Pokaż/ukryj Pliki]
(3) files
Ocena N/A
Tracker
Podobne


Komentarze


Brak Komentarzy!!!