User:      Haso:     



User Info
User:
Haso:
Stwrz kontoOdzyskiwanie hasa


Kategorie


Kolonia/Colony S01-S02 [720p NF WEB-DL H 264 DD5 1] [Napisy PL]


Kategoria: Seriale Zagraniczne


Doda:  Lukarusi
Data dodania: 
04-02-2019
Rozmiar: 27.87 GB

Seedw: 0
Peerw: 0
Ukoczone: ---

Pobrany: 34

Kondycja:

Pobierz



produkcja: USA
gatunek: Sci-fi, Dramat
reyseria: Juan Jos Campanella, Peter Leto
scenariusz: Ryan J. Condal, Carlton Cuse
muzyka: Clinton Shorter
zdjcia: Christopher Faloona, Jeffrey Jur
czas trwania: ok. 40-49 min.



Los Angeles zostaje opanowane przez kosmitw. Podczas gdy cz mieszkacw czerpie korzyci ze wsppracy z najedcami, inni stawiaj im czynny opr.



Josh Holloway - Will Bowman
Sarah Wayne Callies - Katie Bowman
Peter Jacobson - Alan Snyder
Tory Kittles - Broussard
Isabella Crovetti - Gracie Bowman
Alex Neustaedter - Bram Bowman
Amanda Righetti - Madeline
Jacob Buster - Charlie Bowman
Ally Walker - Helena
Kathleen Rose Perkins - Jennifer McMahon
Erin Way - Lindsey
Cooper J. Friedman - Hudson



Format : Matroska
Format version : Version 4 / Version 2
File size : 1.41 GiB
Duration : 49 min 35 s
Overall bit rate mode : Variable
Overall bit rate : 4 074 kb/s
Encoded date : UTC 2019-02-04 18:55:10

Video
ID : 1
Format : AVC
Format/Info : Advanced Video Codec
Format profile : High@L3.1
Format settings : CABAC / 5 Ref Frames
Format settings, CABAC : Yes
Format settings, ReFrames : 5 frames
Codec ID : V_MPEG4/ISO/AVC
Duration : 49 min 35 s
Bit rate mode : Variable
Bit rate : 3 688 kb/s
Maximum bit rate : 4 500 kb/s
Width : 1 280 pixels
Height : 720 pixels
Display aspect ratio : 16:9
Frame rate mode : Constant
Frame rate : 23.976 (24000/1001) FPS
Color space : YUV
Chroma subsampling : 4:2:0
Bit depth : 8 bits
Scan type : Progressive
Bits/(Pixel*Frame) : 0.167
Stream size : 1.28 GiB (91%)
Default : Yes
Forced : Yes
Color range : Limited
Color primaries : BT.709
Transfer characteristics : BT.709
Matrix coefficients : BT.709

Audio
ID : 2
Format : AC-3
Format/Info : Audio Coding 3
Commercial name : Dolby Digital
Codec ID : A_AC3
Duration : 49 min 35 s
Bit rate mode : Constant
Bit rate : 384 kb/s
Channel(s) : 6 channels
Channel layout : L R C LFE Ls Rs
Sampling rate : 48.0 kHz
Frame rate : 31.250 FPS (1536 SPF)
Bit depth : 16 bits
Compression mode : Lossy
Stream size : 136 MiB (9%)
Language : English
Service kind : Complete Main
Default : Yes
Forced : Yes

Text
ID : 3
Format : UTF-8
Codec ID : S_TEXT/UTF8
Codec ID/Info : UTF-8 Plain Text
Duration : 48 min 45 s
Bit rate : 39 b/s
Count of elements : 544
Stream size : 14.1 KiB (0%)
Language : Polish
Default : Yes
Forced : Yes
Pliki
 [Poka/ukryj Pliki]
(46) files
Ocena N/A
Tracker
 [Poka/ukryj Trackery] 
Podobne
Nie znaleziono podobnych tytuw!


Komentarze




kapri10/03/2019 20.44.17
Jest szansa na trzeci sezon z napisami ?