User:      Hasło:     



User Info
User:
Hasło:
Stwórz kontoOdzyskiwanie hasła


Kategorie


Wiedżmy-The Witches *2020* [1080p] [HMAX] [WEBRip] [DD5 1 ] [x264-MZABI] [ENG] [zibi6248]


Kategoria: Filmy x264/h264

Gatunek: Familijne

Dodał:  zibi6248
Data dodania: 
22-10-2020
Rozmiar: 6.27 GB

Seedów: 0
Peerów: 0
Ukończone: ---

Pobrany: 31

Kondycja:

Pobierz

...( Info )...

Produkcja: USA
Gatunek: Familijny, Komedia, Przygodowy
Premiera: 26 pażdziernika
Reżyseria: Robert Zemeckis
Scenariusz: Robert Zemeckis, Kenya Barris
https://www.youtube.com/watch?v=4IVKVZ-Yk-c

...( Opis )...

Oparta na klasycznej książce Roalda Dahla „Czarownice” z 1983 roku, historia opowiada przerażającą, zabawną i pełną wyobraźni opowieść o siedmioletnim chłopcu, który spotkał się z prawdziwymi czarownicami!Innowacyjny wizualnie film Roberta Zemeckisa opowiada czarną humorystyczną i wzruszającą opowieść o młodym osieroconym chłopcu, który pod koniec 1967 roku zamieszkuje ze swoją kochającą babcią w wiejskim mieście Demopolis w Alabamie. Gdzie chłopiec i jego babcia spotykają zwodniczo efektowne, ale na wskroś diabelskie czarownice . Niestety, przybywają dokładnie w tym samym czasie, gdy Wielka Wysoka Czarownica świata zebrała swoich kolegów z całego świata - pod przykrywką - aby zrealizować swoje nikczemne plany.

...( Obsada )...

★ Chris Rock ... Older Hero Mouse
★ Jahzir Bruno ... Hero Boy
★ Octavia Spencer ... Grandma
★ Josette Simon ... Zelda

...( Dane Techniczne )...

Video
ID : 1
Format : AVC
Format/Info : Advanced Video Codec
Format profile : High@L4
Format settings : CABAC / 4 Ref Frames
Format settings, CABAC : Yes
Format settings, Reference frames : 4 frames
Codec ID : V_MPEG4/ISO/AVC
Duration : 1 h 44 min
Bit rate mode : Variable
Bit rate : 8 228 kb/s
Maximum bit rate : 12.4 Mb/s
Width : 1 920 pixels
Height : 816 pixels
Display aspect ratio : 2.35:1
Frame rate mode : Constant
Frame rate : 23.976 (24000/1001) FPS
Color space : YUV
Chroma subsampling : 4:2:0
Bit depth : 8 bits
Scan type : Progressive
Bits/(Pixel*Frame) : 0.219
Stream size : 5.99 GiB (96%)
Default : Yes
Forced : No
Color range : Limited
Color primaries : BT.709
Transfer characteristics : BT.709
Matrix coefficients : BT.709

Audio
ID : 2
Format : AC-3
Format/Info : Audio Coding 3
Commercial name : Dolby Digital
Codec ID : A_AC3
Duration : 1 h 44 min
Bit rate mode : Constant
Bit rate : 384 kb/s
Channel(s) : 6 channels
Channel layout : L R C LFE Ls Rs
Sampling rate : 48.0 kHz
Frame rate : 31.250 FPS (1536 SPF)
Compression mode : Lossy
Stream size : 286 MiB (4%)
Title : English
Language : English
Service kind : Complete Main
Default : No
Forced : No

Text #1
ID : 3
Format : UTF-8
Codec ID : S_TEXT/UTF8
Codec ID/Info : UTF-8 Plain Text
Duration : 1 h 36 min
Bit rate : 58 b/s
Count of elements : 1537
Stream size : 41.0 KiB (0%)
Title : English
Language : English
Default : No
Forced : No

Text #2
ID : 4
Format : UTF-8
Codec ID : S_TEXT/UTF8
Codec ID/Info : UTF-8 Plain Text
Duration : 1 h 36 min
Bit rate : 69 b/s
Count of elements : 1788
Stream size : 49.0 KiB (0%)
Title : English [SDH]
Language : English
Default : No
Forced : No
ScreenyScreen 1: ? 
Pliki
 [Pokaż/ukryj Pliki]
(2) files
Ocena N/A
Tracker
Podobne
Nie znaleziono podobnych tytułów!


Komentarze


Brak Komentarzy!!!