User:      Hasło:     



User Info
User:
Hasło:
Stwórz kontoOdzyskiwanie hasła


Kategorie


Zanim się pojawiłeś / Me Before You *2016* [1080p HC WEBRip x264 AAC2 0-STUTTERSHIT] [ENG]


Kategoria: Filmy x264/h264

Gatunek: Dramat / Obyczajowy

Dodał:  PTMANIAC
Data dodania: 
05-07-2016
Rozmiar: 3.63 GB

Seedów: 0
Peerów: 0
Ukończone: 174185

Pobrany: 226

Kondycja:

Pobierz



Produkcja: USA
Gatunek: Dramat
Premiera: 10 czerwca 2016 (Polska), 2 czerwca 2016 (świat)
Reżyseria: Thea Sharrock
Scenariusz: Jojo Moyes



Louisa "Lou" Clark (Emilia Clarke) mieszka w niewielkim angielskim miasteczku i nie wie jeszcze, co zrobić ze swoim życiem. Ekscentryczna 26-latka próbuje sił w wielu dziedzinach, by pomóc swej rodzinie związać koniec z końcem. Zostaje opiekunką Willa Traynora (Sam Claflin), młodego, bogatego bankiera, którego losy całkowicie zmieniły się na skutek tragicznego zdarzenia sprzed dwóch lat. Niegdyś pełen energii, dziś cyniczny do szpiku kości Will wyzbył się już wszelkiej nadziei na szczęście. Dziewczyna postanawia pokazać mu, że jest jeszcze inna droga...



 Emilia Clarke .... Lou Clark
 Sam Claflin .... Will Traynor
 Janet McTeer .... Camilla Traynor
 Charles Dance .... Stephen Traynor
 Brendan Coyle .... Bernard Clark
 Jenna Coleman .... Katrina "Treena" Clark
 Matthew Lewis .... Patrick
 Vanessa Kirby .... Alicia



Video
ID : 1
Format : AVC
Format/Info : Advanced Video Codec
Format profile : High@L4.1
Format settings, CABAC : Yes
Format settings, ReFrames : 4 frames
Codec ID : avc1
Codec ID/Info : Advanced Video Coding
Duration : 1h 49mn
Bit rate : 4 500 Kbps
Width : 1 920 pixels
Height : 800 pixels
Display aspect ratio : 2.40:1
Frame rate mode : Constant
Frame rate : 23.976 (23976/1000) fps
Color space : YUV
Chroma subsampling : 4:2:0
Bit depth : 8 bits
Scan type : Progressive
Bits/(Pixel*Frame) : 0.122
Stream size : 3.45 GiB (95%)
Title : Me.Before.You.2016.1080p.HC.WEBRip.x264.AAC2.0-STUTTERSHIT
Writing library : x264 core 148 r2597M e86f3a1
Encoding settings : cabac=1 / ref=4 / deblock=1:0:0 / analyse=0x3:0x113 / me=umh / subme=8 / psy=1 / psy_rd=1.00:0.00 / mixed_ref=1 / me_range=16 / chroma_me=1 / trellis=1 / 8x8dct=1 / cqm=0 / deadzone=21,11 / fast_pskip=1 / chroma_qp_offset=-2 / threads=40 / lookahead_threads=6 / sliced_threads=0 / nr=0 / decimate=1 / interlaced=0 / bluray_compat=0 / constrained_intra=0 / bframes=3 / b_pyramid=2 / b_adapt=2 / b_bias=0 / direct=3 / weightb=1 / open_gop=0 / weightp=2 / keyint=250 / keyint_min=23 / scenecut=40 / intra_refresh=0 / rc_lookahead=50 / rc=abr / mbtree=1 / bitrate=4500 / ratetol=1.0 / qcomp=0.60 / qpmin=0 / qpmax=69 / qpstep=4 / ip_ratio=1.40 / aq=1:1.00

Audio
ID : 2
Format : AAC
Format/Info : Advanced Audio Codec
Format profile : LC
Codec ID : 40
Duration : 1h 49mn
Bit rate mode : Constant
Bit rate : 224 Kbps
Channel(s) : 2 channels
Channel positions : Front: L R
Sampling rate : 48.0 KHz
Frame rate : 46.875 fps (1024 spf)
Compression mode : Lossy
Stream size : 176 MiB (5%)
Title : Me.Before.You.2016.1080p.HC.WEBRip.x264.AAC2.0-STUTTERSHIT
Default : Yes
Alternate group : 1
Pliki
 [Pokaż/ukryj Pliki]
(3) files
Ocena
Tracker
Podobne


Komentarze


Brak Komentarzy!!!