User:      Hasło:     



User Info
User:
Hasło:
Stwórz kontoOdzyskiwanie hasła


Kategorie


Zbuntowana 3D - Insurgent *2015* [mini-HD] [3D] [1080p] [BluRay] [AC3] [x264] [Lektor PL]


Kategoria: Filmy 3D

Gatunek: Akcja / Sensacyjny

Dodał:  PTMANIAC
Data dodania: 
23-05-2016
Rozmiar: 3.97 GB

Seedów: 3
Peerów: 1
Ukończone: 1370

Pobrany: 548

Kondycja:

Pobierz

Film w wersji 3D Over-Under.
Do odtworzenia filmu WYMAGANY odpowiedni sprzęt (TV 3D)

INFO

Produkcja: USA
Gatunek: Akcja, Romans, Sci-Fi,
Premiera: 20 marca 2015 (Polska), 11 marca 2015 (świat)
Reżyseria: Robert Schwentke,
Scenariusz: Brian Duffield, Akiva Goldsman, Mark Bomback



OPIS

Nastoletnia Beatrice Prior w imię miłości porzuciła uporządkowany świat i teraz, naznaczona piętnem Niezgodnej, musi zmagać się z konsekwencjami swojej decyzji. Podjęta przez nią walka może mieć wpływ nie tylko na jej osobistą przyszłość, ale także wstrząsnąć posadami otaczającego świata. O ile oczywiście uda jej się udźwignąć spoczywające na niej brzemię, by w ogarniętym wojną domową świecie zdać niespodziewany i trudny egzamin dojrzałości. A jednocześnie nie utracić tego, na czym zależy jej najbardziej.



OBSADA

Shailene Woodley ... Beatrice "Tris" Prior
Theo James ... Cztery
Kate Winslet ... Jeanine
Naomi Watts ... Evelyn
Octavia Spencer ... Johanna
Jai Courtney ... Eric
Ray Stevenson ... Marcus Eaton
Zoë Kravitz ... Christina



DANE TECHNICZNE

Format : Matroska
Format version : Version 2
File size : 3.97 GiB
Duration : 1h 58mn
Overall bit rate : 4 781 Kbps
Movie name : Insurgent_3D.2015.Bluray3D Rip by Sonda [*censored*]
Encoded date : UTC 2015-08-19 06:49:37
Writing application : mkvmerge v5.7.0 ('The Whirlwind') built on Jul 8 2012 20:08:51
Writing library : libebml v1.2.3 + libmatroska v1.3.0

Video
ID : 1
Format : AVC
Format/Info : Advanced Video Codec
Format profile : High@L4.1
Format settings, CABAC : Yes
Format settings, ReFrames : 2 frames
Codec ID : V_MPEG4/ISO/AVC
Duration : 1h 58mn
Bit rate : 4 237 Kbps
Width : 1 920 pixels
Height : 1 080 pixels
Display aspect ratio : 2.40:1
Frame rate mode : Constant
Frame rate : 23.976 fps
Color space : YUV
Chroma subsampling : 4:2:0
Bit depth : 8 bits
Scan type : Progressive
Bits/(Pixel*Frame) : 0.085
Stream size : 3.52 GiB (89%)
Title : Rip by Sonda
Writing library : x264 core
Default : Yes
Forced : No
Color primaries : BT.709
Transfer characteristics : BT.709
Matrix coefficients : BT.709

Audio
ID : 2
Format : AC-3
Format/Info : Audio Coding 3
Mode extension : CM (complete main)
Format settings, Endianness : Big
Codec ID : A_AC3
Duration : 1h 58mn
Bit rate mode : Constant
Bit rate : 448 Kbps
Channel(s) : 6 channels
Channel positions : Front: L C R, Side: L R, LFE
Sampling rate : 48.0 KHz
Bit depth : 16 bits
Compression mode : Lossy
Delay relative to video : 112ms
Stream size : 381 MiB (9%)
Title : AC3 5.1 Lektor PL
Language : Polish
Default : Yes
Forced : No

Pliki
 [Pokaż/ukryj Pliki]
(4) files
Ocena
Tracker
Podobne
Nie znaleziono podobnych tytułów!


Komentarze


Brak Komentarzy!!!