User:      Hasło:     



User Info
User:
Hasło:
Stwórz kontoOdzyskiwanie hasła


Kategorie


Marilyn Manson - Antichrist Superstar (1996) (PBTHAL LP 24-96) [FLAC]


Kategoria: Muzyka Zagraniczna


Dodał:  Beatrix
Data dodania: 
28-12-2020
Rozmiar: 1.61 GB

Seedów: 60
Peerów: 35
Ukończone: 263

Pobrany: 2

Kondycja:

Pobierz



Marilyn Manson
Antichrist Superstar (1996)
FLAC LOSSLESS 24bit-96kHz
PBTHAL Vinyl Rip


allmusic.com...

Boasting a fuller sound and a more focused sense of purpose, Antichrist Superstar is a substantial improvement on Marilyn Manson's debut album, Portrait of an American Family. The band draws equally from schlock metal, progressive metal, new wave, goth rock, and industrial rock, and with the help of producers Trent Reznor and Dave Ogilvie, the group creates a boiling, mockingly satanic mess of guitars, synthesizers, and ridiculously "scary" vocals. Though the sonic details make Antichrist Superstar an intriguing listen, it's not as extreme as it could have been -- in particular, the guitars are surprisingly anemic, sounding like buzzing vacuums instead of unwieldy chainsaws. Even with that considered, Antichrist Superstar is an unexpectedly cohesive album from a silly shock metal band and will stand as Marilyn Manson's definitive statement.


foobar2000 1.4.3 / Dynamic Range Meter 1.1.1
log date: 2020-12-10 09:04:25

--------------------------------------------------------------------------------
Analyzed: Marilyn Manson / Antichrist Superstar
--------------------------------------------------------------------------------

DR         Peak         RMS     Duration Track
--------------------------------------------------------------------------------



DR10      -1.43 dB   -13.99 dB      4:18 01-Irresponisible Hate Anthem
DR11      -1.39 dB   -13.56 dB      3:39 02-The Beautiful People
DR10      -1.07 dB   -13.93 dB      4:15 03-Dried Up, Tried Up, Dead To The World
DR9       -0.70 dB   -11.84 dB      4:28 04-Tourniquet
DR9       -2.00 dB   -13.52 dB      2:47 05-Little Horn
DR12      -3.64 dB   -17.30 dB      2:44 06-Cryhtorchid
DR9       -1.08 dB   -12.85 dB      4:31 07-Deformography
DR9       -1.37 dB   -12.78 dB      3:54 08-Wormboy
DR9       -0.70 dB   -13.66 dB      5:02 09-Mister Superstar
DR11      -1.63 dB   -15.24 dB      3:52 10-Angel With The Scabbed Wings
DR10      -0.89 dB   -12.46 dB      4:51 11-Kinderfeld
DR11      -0.92 dB   -13.62 dB      5:15 12-Antichrist Superstar
DR9       -1.56 dB   -11.75 dB      4:03 13-1996
DR10      -1.66 dB   -15.14 dB      4:43 14-Minute Of Decay
DR9       -0.70 dB   -12.11 dB      5:35 15-The Reflecting God
DR9       -1.43 dB   -13.87 dB      6:14 16-Man That You Fear
DR13     -14.98 dB   -32.57 dB      1:41 17-Untitled

Number of tracks:  17
Official DR value: DR10

Samplerate:        96000 Hz
Channels:          2
Bits per sample:   24
Bitrate:           2851 kbps
Codec:             FLAC

Pliki
 [Pokaż/ukryj Pliki]
(21) files
Ocena N/A
Tracker
Podobne


Komentarze


Brak Komentarzy!!!