User:      Hasło:     



User Info
User:
Hasło:
Stwórz kontoOdzyskiwanie hasła


Kategorie


Kong Skull Island *2017* [HDCAM XviD-DIRG] [ENG]


Kategoria: Filmy TS/CAM

Gatunek: Przygodowy

Dodał:  PTMANIAC
Data dodania: 
17-03-2017
Rozmiar: 2.48 GB

Seedów: 3471
Peerów: 1849
Ukończone: 50205

Pobrany: 64

Kondycja:

Pobierz



Produkcja: USA, Wietnam
Gatunek: Fantasy, Przygodowy
Premiera: 10 marca 2017 (Polska), 28 lutego 2017 (świat)
Reżyseria: Jordan Vogt-Roberts
Scenariusz: Max Borenstein, Dan Gilroy, Derek Connolly




Film śledzi losy zespołu badaczy, którzy zapuszczają się w głąb niezbadanej wyspy położonej na Pacyfiku — tak samo pięknej, jak i zdradliwej — nie wiedząc, że wchodzą na teren należący do mitycznego King Konga.




★ Tom Hiddleston .... James Conrad
★ Samuel L. Jackson .... Preston Packard
★ Brie Larson .... Mason Weaver
★ John C. Reilly .... Hank Marlow
★ John Goodman .... Bill Randa
★ Corey Hawkins .... Houston Brooks
★ John Ortiz .... Victor Nieves
★ Tian Jing .... San




Runtime ..........: 1:47:55
IMDb URL .........: http://www.imdb.com/title/tt3731562
Language .........: English
File Size ........: 2.5 GB
Release Date .....: 2017
Source ...........: Mr.Miyagi
File Type ........: AVI
Genre ............: Action, Adventure, Fantasy

Video
ID : 0
Format : MPEG-4 Visual
Format profile : Advanced Simple@L5
Format settings, BVOP : 2
Format settings, QPel : Yes
Format settings, GMC : 3 warppoints
Format settings, Matrix : Default (H.263)
Muxing mode : Packed bitstream
Codec ID : XVID
Codec ID/Hint : XviD
Duration : 1 h 47 min
Bit rate : 3 054 kb/s
Width : 720 pixels
Height : 320 pixels
Display aspect ratio : 2.25:1
Frame rate : 23.976 (24000/1001) FPS
Color space : YUV
Chroma subsampling : 4:2:0
Bit depth : 8 bits
Scan type : Progressive
Compression mode : Lossy
Bits/(Pixel*Frame) : 0.553
Stream size : 2.30 GiB (94%)
Writing library : XviD 73

Audio
ID : 1
Format : MPEG Audio
Format version : Version 1
Format profile : Layer 3
Mode : Joint stereo
Codec ID : 55
Codec ID/Hint : MP3
Duration : 1 h 47 min
Bit rate mode : Constant
Bit rate : 192 kb/s
Channel(s) : 2 channels
Sampling rate : 48.0 kHz
Compression mode : Lossy
Stream size : 148 MiB (6%)
Alignment : Split accross interleaves
Interleave, duration : 42 ms (1.00 video frame)
Interleave, preload duratio : 500 ms
Pliki
 [Pokaż/ukryj Pliki]
(2) files
Ocena N/A
Tracker
Podobne


Komentarze


Brak Komentarzy!!!