User:      Hasło:     



User Info
User:
Hasło:
Stwórz kontoOdzyskiwanie hasła


Kategorie


Kapitan Ameryka: Wojna bohaterów / Captain America Civil War *2016* [720p BluRay X264-AMIABLE] [ENG]


Kategoria: Filmy BluRay/HDTV 720p

Gatunek: Akcja / Sensacyjny

Dodał:  PTMANIAC
Data dodania: 
29-08-2016
Rozmiar: 6.58 GB

Seedów: 104
Peerów: 34
Ukończone: 4787

Pobrany: 240

Kondycja:

Pobierz



Produkcja: USA
Gatunek: Akcja, Sci-Fi
Premiera: 6 maja 2016 (Polska), 12 kwietnia 2016 (świat)
Reżyseria: Joe Russo
Scenariusz: Christopher Markus, Stephen McFeely




W filmie "Kapitan Ameryka: Wojna bohaterów", będącym bezpośrednią kontynuacją hitowego "Avengers: Czas Ultrona", Steve Rogers aka Kapitan Ameryka staje na czele drużyny Avengers, by ponownie ocalić ludzkość przed zagładą. W czasie kolejnej międzynarodowej akcji z udziałem superbohaterów ponownie dochodzi do strat w ludności cywilnej. Rosną więc naciski polityczne, by poddać herosów systemowi nadzoru i utworzyć organ decydujący o stopniu ich zaangażowania w działania militarne. Sytuacja ta poważnie wpływa na atmosferę panującą wśród Avengers, którzy starają się obronić świat przed nowym, nikczemnym nieprzyjacielem.




★ Chris Evans .... Steve Rogers / Kapitan Ameryka
★ Robert Downey Jr. .... Tony Stark / Iron Man
★ Scarlett Johansson .... Natasha Romanoff / Czarna Wdowa
★ Sebastian Stan .... Bucky Barnes / Zimowy Żołnierz
★ Anthony Mackie .... Sam Wilson / Falcon
★ Don Cheadle .... Porucznik James Rhodes / War Machine
★ Jeremy Renner .... Clint Barton / Sokole Oko
★ Chadwick Boseman .... T`Challa / Czarna Pantera




Video
ID : 1
Format : AVC
Format/Info : Advanced Video Codec
Format profile : High@L4.1
Format settings, CABAC : Yes
Format settings, ReFrames : 5 frames
Codec ID : V_MPEG4/ISO/AVC
Duration : 2h 27mn
Bit rate : 4 840 Kbps
Width : 1 280 pixels
Height : 536 pixels
Display aspect ratio : 2.40:1
Frame rate mode : Constant
Frame rate : 23.976 (24000/1001) fps
Color space : YUV
Chroma subsampling : 4:2:0
Bit depth : 8 bits
Scan type : Progressive
Bits/(Pixel*Frame) : 0.294
Stream size : 4.87 GiB (74%)
Writing library : x264 core 148 r2705 3f5ed56
Encoding settings : cabac=1 / ref=5 / deblock=1:-3:-3 / analyse=0x3:0x113 / me=umh / subme=8 / psy=1 / psy_rd=1.00:0.00 / mixed_ref=1 / me_range=16 / chroma_me=1 / trellis=1 / 8x8dct=1 / cqm=0 / deadzone=21,11 / fast_pskip=1 / chroma_qp_offset=-2 / threads=6 / lookahead_threads=1 / sliced_threads=0 / nr=0 / decimate=1 / interlaced=0 / bluray_compat=0 / constrained_intra=0 / bframes=3 / b_pyramid=2 / b_adapt=2 / b_bias=0 / direct=3 / weightb=1 / open_gop=0 / weightp=2 / keyint=240 / keyint_min=24 / scenecut=40 / intra_refresh=0 / rc_lookahead=50 / rc=2pass / mbtree=1 / bitrate=4840 / ratetol=1.0 / qcomp=0.60 / qpmin=0 / qpmax=69 / qpstep=4 / cplxblur=20.0 / qblur=0.5 / ip_ratio=1.40 / aq=3:0.80
Default : No
Forced : No
Statistics Tags Issue : no_variable_data 1970-01-01 00:00:00 / no_variable_data 2010-02-22 21:41:29
FromStats_BitRate : 4839839
FromStats_Duration : 02:27:41.936000000
FromStats_FrameCount : 212474
FromStats_StreamSize : 5361293797

Audio
ID : 2
Format : DTS
Format/Info : Digital Theater Systems
Mode : 16
Format settings, Endianness : Big
Codec ID : A_DTS
Duration : 2h 27mn
Bit rate mode : Constant
Bit rate : 1 509 Kbps
Channel(s) : 6 channels
Channel positions : Front: L C R, Side: L R, LFE
Sampling rate : 48.0 KHz
Frame rate : 93.750 fps (512 spf)
Bit depth : 24 bits
Compression mode : Lossy
Stream size : 1.56 GiB (24%)
Language : English
Default : Yes
Forced : No
Statistics Tags Issue : no_variable_data 1970-01-01 00:00:00 / no_variable_data 2010-02-22 21:41:29
FromStats_BitRate : 1508999
FromStats_Duration : 02:27:41.942000000
FromStats_FrameCount : 830807
FromStats_StreamSize : 1671583684

Text #1
ID : 3
Format : UTF-8
Codec ID : S_TEXT/UTF8
Codec ID/Info : UTF-8 Plain Text
Title : Forced
Language : English
Default : Yes
Forced : Yes
Statistics Tags Issue : no_variable_data 1970-01-01 00:00:00 / no_variable_data 2010-02-22 21:41:29
FromStats_BitRate : 1
FromStats_Duration : 01:44:48.449000000
FromStats_FrameCount : 59
FromStats_StreamSize : 1184

Text #2
ID : 4
Format : UTF-8
Codec ID : S_TEXT/UTF8
Codec ID/Info : UTF-8 Plain Text
Language : English
Default : No
Forced : No
Statistics Tags Issue : no_variable_data 1970-01-01 00:00:00 / no_variable_data 2010-02-22 21:41:29
FromStats_BitRate : 50
FromStats_Duration : 02:25:59.710000000
FromStats_FrameCount : 1865
FromStats_StreamSize : 55539

Text #3
ID : 5
Format : UTF-8
Codec ID : S_TEXT/UTF8
Codec ID/Info : UTF-8 Plain Text
Title : SDH
Language : English
Default : No
Forced : No
Statistics Tags Issue : no_variable_data 1970-01-01 00:00:00 / no_variable_data 2010-02-22 21:41:29
FromStats_BitRate : 55
FromStats_Duration : 02:26:16.684000000
FromStats_FrameCount : 2105
FromStats_StreamSize : 60520
Pliki
 [Pokaż/ukryj Pliki]
(6) files
Ocena N/A
Tracker
Podobne


Komentarze


Brak Komentarzy!!!