User:      Hasło:     



User Info
User:
Hasło:
Stwórz kontoOdzyskiwanie hasła


Kategorie


Mumia The Mummy 3D [2017][BRRip 1080p x264 by alE13 AC3/DTS] [Lektor i Napisy PL/ENG] [ENG]


Kategoria: Filmy 3D

Gatunek: Sci-Fi / Fantasy

Dodał:  kori
Data dodania: 
03-03-2018
Rozmiar: 11.38 GB

Seedów: 1
Peerów: 2
Ukończone: 38

Pobrany: 126

Kondycja:

Pobierz


https://i.imgur.com/vNqiPuI.jpg

http://www.imdb.com/title/tt2345759/
http://www.filmweb.pl/film/Mumia-2017-674146

Film w wersji 3D Half Over/Under.
Audio DTS MA/ES Matrix/Core w osobnym pliku.
Lektor amatorski.
Plik zawiera sample.

reżyseria: Alex Kurtzman
scenariusz: Christopher McQuarrie,David Koepp,Dylan Kussman
gatunek: Fantasy,Przygodowy
produkcja: USA
premiera: 22-05-2017
muzyka:     Brian Tyler
zdjęcia:    Ben Seresin
czas:      01:50:05



An ancient princess is awakened from her crypt beneath the desert, bringing with her
malevolence grown over millennia, and terrors that defy human comprehension.

Przez wieki spoczywająca w grobowcu ukrytym w piaskach pustyni starożytna księżniczka,
której przeznaczenie nie zdążyło się wypełnić, budzi się w dzisiejszych czasach. Jej
złość na niesprawiedliwość, która ją spotkała, rosła przez tysiące lat, przybierając
rozmiary wymykające się ludzkiej wyobraźni. Od gorących piachów pustyni, przez tajemnicze
labirynty ukryte pod dzisiejszym Londynem. Mumia budzi nowy wszechświat bogów i potworów.



Tom Cruise, Russell Crowe, Sofia Boutella, Annabelle Wallis



Audio
ID             : 1
Format           : DTS
Format/INFO         : Digital Theater Systems
Format profile       : MA / ES Matrix / Core
Mode            : 16
Format settings, Endianness : Big
Codec ID          : A_DTS
Duration          : 1 h 50 min
Bit rate mode        : Variable / Constant / Constant
Bit rate          : 4 196 kb/s / 1 509 kb/s / 1 509 kb/s
Channel(s)         : 8 channels / 7 channels / 6 channels
Channel positions      : Front: L C R, Side: L R, Back: L R, LFE / Front: L C R, Side: L R, Back: C, LFE / Front: L C R, Side: L R, LFE
Sampling rate        : 48.0 kHz
Frame rate         : 93.750 FPS (512 SPF)
Bit depth          : 24 bits
Compression mode      : Lossless / Lossy / Lossy
Stream size         : 3.23 GiB (100%)
Language          : English
Default           : Yes
Forced           : No

Video

The Mummy 3D (2017)-*censored*.mkv
Format           : Matroska
Format version       : Version 4 / Version 2
File size          : 8.09 GiB
Duration          : 1 h 50 min
Overall bit rate      : 10.5 Mb/s
Movie name         : The Mummy 3D (2017)-*censored*
Encoded date        : UTC 2017-09-20 08:05:34
Writing application     : mkvmerge v8.1.0 ('Psychedelic Postcard') 64bit
Writing library       : libebml v1.3.1 + libmatroska v1.4.2
Cover            : Yes
Attachments         : Cover.jpg

Video
ID             : 1
Format           : AVC
Format/INFO         : Advanced Video Codec
Format profile       : High@L4.1
Format settings, CABAC   : Yes
Format settings, RefFrames : 2 frames
Codec ID          : V_MPEG4/ISO/AVC
Duration          : 1 h 50 min
Bit rate          : 9 612 kb/s
Width            : 1 920 pixels
Height           : 800 pixels
Display aspect ratio    : 2.40:1
Frame rate mode       : Constant
Frame rate         : 23.976 (24000/1001) FPS
Color space         : YUV
Chroma subsampling     : 4:2:0
Bit depth          : 8 bits
Scan type          : Progressive
Bits/(Pixel*Frame)     : 0.261
Stream size         : 7.39 GiB (91%)
Title            : The Mummy 3D (2017)-*censored*
Default           : Yes
Forced           : No
Color range         : Limited
Color primaries       : BT.709
Transfer characteristics  : BT.709
Matrix coefficients     : BT.709

Audio #1
ID             : 2
Format           : AC-3
Format/INFO         : Audio Coding 3
Format settings, Endianness : Big
Codec ID          : A_AC3
Duration          : 1 h 50 min
Bit rate mode        : Constant
Bit rate          : 640 kb/s
Channel(s)         : 6 channels
Channel positions      : Front: L C R, Side: L R, LFE
Sampling rate        : 48.0 kHz
Frame rate         : 31.250 FPS (1536 SPF)
Bit depth          : 16 bits
Compression mode      : Lossy
Stream size         : 504 MiB (6%)
Title            : The Mummy 3D (2017)-*censored*_AC3
Language          : English
Service kind        : Complete Main
Default           : No
Forced           : No

Audio #2
ID             : 3
Format           : AC-3
Format/INFO         : Audio Coding 3
Format settings, Endianness : Big
Codec ID          : A_AC3
Duration          : 1 h 50 min
Bit rate mode        : Constant
Bit rate          : 256 kb/s
Channel(s)         : 2 channels
Channel positions      : Front: L R
Sampling rate        : 48.0 kHz
Frame rate         : 31.250 FPS (1536 SPF)
Bit depth          : 16 bits
Compression mode      : Lossy
Delay relative to video   : 654 ms
Stream size         : 202 MiB (2%)
Title            : The Mummy 3D (2017)-*censored*_AC3
Language          : Polish
Service kind        : Complete Main
Default           : Yes
Forced           : No

Text #1
ID             : 4
Format           : VobSub
Muxing mode         : zlib
Codec ID          : S_VOBSUB
Codec ID/INFO        : Picture based subtitle format used on DVDs
Duration          : 1 h 38 min
Bit rate          : 6 311 b/s
Count of elements      : 790
Stream size         : 4.44 MiB (0%)
Title            : The Mummy 3D (2017)-*censored*_VobSub
Language          : Polish
Default           : No
Forced           : No

Text #2
ID             : 5
Format           : UTF-8
Codec ID          : S_TEXT/UTF8
Codec ID/INFO        : UTF-8 Plain Text
Duration          : 1 h 38 min
Bit rate          : 37 b/s
Count of elements      : 790
Stream size         : 26.8 KiB (0%)
Title            : The Mummy 3D (2017)-*censored*
Language          : Polish
Default           : No
Forced           : No

Text #3
ID             : 6
Format           : VobSub
Muxing mode         : zlib
Codec ID          : S_VOBSUB
Codec ID/INFO        : Picture based subtitle format used on DVDs
Duration          : 1 h 36 min
Bit rate          : 7 231 b/s
Count of elements      : 1081
Stream size         : 5.01 MiB (0%)
Title            : The Mummy 3D (2017)-*censored*_VobSub
Language          : English
Default           : No
Forced           : No

Text #4
ID             : 7
Format           : UTF-8
Codec ID          : S_TEXT/UTF8
Codec ID/INFO        : UTF-8 Plain Text
Duration          : 1 h 36 min
Bit rate          : 41 b/s
Count of elements      : 1081
Stream size         : 29.5 KiB (0%)
Title            : The Mummy 3D (2017)-*censored*
Language          : English
Default           : No
Forced           : No

Menu
00:00:00.000        : en:(01)00:00:00:000
00:08:18.706        : en:(02)00:08:18:706
00:13:18.923        : en:(03)00:13:18:923
00:19:31.461        : en:(04)00:19:31:461
00:24:40.144        : en:(05)00:24:40:144
00:28:54.105        : en:(06)00:28:54:105
00:35:41.389        : en:(07)00:35:41:389
00:39:36.039        : en:(08)00:39:36:039
00:47:00.090        : en:(09)00:47:00:067
00:50:57.660        : en:(10)00:50:57:637
00:56:49.762        : en:(11)00:56:49:739
01:00:43.872        : en:(12)01:00:43:849
01:08:58.032        : en:(13)01:08:58:009
01:16:03.936        : en:(14)01:16:03:850
01:19:38.583        : en:(15)01:19:38:439
01:23:16.552        : en:(16)01:23:16:408
01:26:26.989        : en:(17)01:26:26:845
01:33:35.087        : en:(18)01:33:34:943
01:37:03.128        : en:(19)01:37:02:984
01:39:48.124        : en:(20)01:39:47:980*censored*
Pliki
 [Pokaż/ukryj Pliki]
(15) files
Ocena N/A
Tracker
Podobne
Nie znaleziono podobnych tytułów!


Komentarze




oktawian03/03/2018 22.51.45
Obejrzałem już kiedyś i powiem ci że słabizna. Końcówka chyba zawiera najwięcej efektów, ale ogółem to słaby jak cholera.
Patron03/03/2018 18.19.51
O! Tego właśnie mi na dziś wieczór brakowało! THX! Świetny torrent! Oby tylko pobierał się szybko!!!!