User:      Hasło:     



User Info
User:
Hasło:
Stwórz kontoOdzyskiwanie hasła


Kategorie


Fear the Walking Dead S04E12 - Weak [1080p iT WEB-DL H 264 AC3] [Lektor PL] [ENG+Napisy PL]


Kategoria: Seriale Zagraniczne


Dodał:  Lukarusi
Data dodania: 
04-09-2018
Rozmiar: 1.81 GB

Seedów: 1
Peerów: 0
Ukończone: ---

Pobrany: 8

Kondycja:

Pobierz



produkcja: USA
gatunek: Horror, Dramat
reżyseria: Dan Liu, Magnus Martens, John Polson
scenariusz: Robert Kirkman, Dave Erickson
zdjęcia: Adam Suschitzky
muzyka: Danny Bensi, Saunder Jurriaans
czas trwania: ok. 43 min.



Spin-off serialu "The Walking Dead", opowiadający o początkach epidemii zombie w Los Angeles.



Kim Dickens - Madison Clark
Alycia Debnam-Carey - Alicia Clark
Frank Dillane - Nick Clark
Mercedes Mason - Ofelia Salazar
Colman Domingo - Victor Strand
Rubén Blades - Daniel Salazar
Cliff Curtis - Travis Manawa
Danay Garcia - Luciana Galvez
Lennie James - Morgan Jones
Jenna Elfman - Naomi



Format : Matroska
Format version : Version 4 / Version 2
File size : 1.81 GiB
Duration : 43 min 28 s
Overall bit rate : 5 969 kb/s
Encoded date : UTC 2018-09-04 16:23:38

Video
ID : 1
Format : AVC
Format/Info : Advanced Video Codec
Format profile : High@L4
Format settings : CABAC / 4 Ref Frames
Format settings, CABAC : Yes
Format settings, ReFrames : 4 frames
Codec ID : V_MPEG4/ISO/AVC
Duration : 43 min 28 s
Bit rate mode : Constant
Bit rate : 5 348 kb/s
Width : 1 916 pixels
Height : 1 076 pixels
Display aspect ratio : 16:9
Frame rate mode : Constant
Frame rate : 23.976 (24000/1001) FPS
Color space : YUV
Chroma subsampling : 4:2:0
Bit depth : 8 bits
Scan type : Progressive
Bits/(Pixel*Frame) : 0.108
Stream size : 1.58 GiB (87%)
Default : Yes
Forced : Yes
Color range : Limited
Color primaries : BT.709
Transfer characteristics : BT.709
Matrix coefficients : BT.709

Audio 1
ID : 2
Format : AC-3
Format/Info : Audio Coding 3
Codec ID : A_AC3
Duration : 43 min 28 s
Bit rate mode : Constant
Bit rate : 384 kb/s
Channel(s) : 2 channels
Channel positions : Front: L R
Sampling rate : 48.0 kHz
Frame rate : 31.250 FPS (1536 SPF)
Bit depth : 16 bits
Compression mode : Lossy
Stream size : 119 MiB (6%)
Language : Polish
Service kind : Complete Main
Default : Yes
Forced : Yes

Audio 2
ID : 3
Format : AC-3
Format/Info : Audio Coding 3
Codec ID : A_AC3
Duration : 43 min 28 s
Bit rate mode : Constant
Bit rate : 384 kb/s
Channel(s) : 6 channels
Channel positions : Front: L C R, Side: L R, LFE
Sampling rate : 48.0 kHz
Frame rate : 31.250 FPS (1536 SPF)
Bit depth : 16 bits
Compression mode : Lossy
Stream size : 119 MiB (6%)
Language : English
Service kind : Complete Main
Default : No
Forced : No

Text
ID : 4
Format : UTF-8
Codec ID : S_TEXT/UTF8
Codec ID/Info : UTF-8 Plain Text
Duration : 42 min 17 s
Bit rate : 36 b/s
Count of elements : 323
Stream size : 11.3 KiB (0%)
Language : Polish
Default : No
Forced : No
Pliki
 [Pokaż/ukryj Pliki]
(1) file
Ocena N/A
Tracker
 [Pokaż/ukryj Trackery] 
Podobne


Komentarze


Brak Komentarzy!!!