User:      Hasło:     



User Info
User:
Hasło:
Stwórz kontoOdzyskiwanie hasła


Kategorie


Sekretne życie zwierzaków domowych 3D - The Secret Life of Pets *2016* [mini-HD 1080p 3D Half Over-Under Dual Audio AC3 BluRay x264-SONDA] [Dubbing i Napisy PL] [ENG]


Kategoria: Filmy 3D

Gatunek: Anime / Bajka

Dodał:  PTMANIAC
Data dodania: 
10-11-2016
Rozmiar: 3.96 GB

Seedów: 10
Peerów: 1
Ukończone: 2946

Pobrany: 439

Kondycja:

Pobierz





Film w wersji 3D Half Over-Under.
Do odtworzenia filmu WYMAGANY odpowiedni sprzęt (TV 3D)
=========================================

Kopia mini-HD 1080p = 3,96 GB



gatunek: Animacja,Komedia
produkcja: Japonia,USA
premiera: 23 wrze¶nia 2016 (Polska) 18 czerwca 2016 (¶wiat)
reżyseria: Chris Renaud,Yarrow Cheney
scenariusz: Cinco Paul,Ken Daurio,Brian Lynch

http://www.imdb.com/title/tt2709768/



Tomasz Borkowski ... Max (polski dubbing)
Jakub Wieczorek ... Duke (polski dubbing)
Agnieszka Mrozińska ... Bridget (polski dubbing)
Paweł Krucz ... Tuptu¶ (polski dubbing)
Aleksander Mikołajczak ... Tyberiusz (polski dubbing)
Zofia Zborowska ... Chloe (polski dubbing)
Karol Wróblewski ... Budek (polski dubbing)



Jeżeli kto¶ my¶li, że kiedy zostawia swoje ukochane zwierzaki w domu, one zajmuj± się wył±cznie tęsknot± za nim, cóż, jest w błędzie. Zwierzaki prowadz± swoje własne, osobne życie, pełne przygód, intryg i zabawy. A ich główne zmartwienie polega na tym, aby ludzie nie dowiedzieli się o ich sekretnych poczynaniach. Kiedy tylko zamykamy za sob± drzwi… wreszcie mog± być sob±.

Storyline:

Taking place in a Manhattan apartment building, Max's life as a favorite pet is turned upside down, when his owner brings home a sloppy mongrel named Duke. They have to put their quarrels behind when they find out that an adorable white bunny named Snowball is building an army of lost pets determined to take revenge.











General
Format                                   : Matroska
Format version                           : Version 2
File size                                : 3.96 GiB
Duration                                 : 1h 26mn
Overall bit rate                         : 6 565 Kbps
Movie name                               : The.Secret.Life.of.Pets.3D.2016.HOU.BDRip.1080p.Sonda
Encoded date                             : UTC 2016-11-10 11:48:27
Writing application                      : mkvmerge v5.7.0 ('The Whirlwind') built on Jul  8 2012 20:08:51
Writing library                          : libebml v1.2.3 + libmatroska v1.3.0

Video
ID                                       : 1
Format                                   : AVC
Format/Info                              : Advanced Video Codec
Format profile                           : High@L4.1
Format settings, CABAC                   : Yes
Format settings, ReFrames                : 4 frames
Codec ID                                 : V_MPEG4/ISO/AVC
Duration                                 : 1h 26mn
Bit rate                                 : 5 500 Kbps
Width                                    : 1 920 pixels
Height                                   : 1 080 pixels
Display aspect ratio                     : 16:9 (1.85:1)
Frame rate mode                          : Constant
Frame rate                               : 23.976 fps
Color space                              : YUV
Chroma subsampling                       : 4:2:0
Bit depth                                : 8 bits
Scan type                                : Progressive
Bits/(Pixel*Frame)                       : 0.111
Stream size                              : 3.27 GiB (82%)
Title                                    : Rip by Sonda
Writing library                          : x264
Encoding settings                        : cabac=1 / ref=4 / deblock=1:1:1 / rc=2pass
Default                                  : Yes
Forced                                   : No

Audio #1
ID                                       : 2
Format                                   : AC-3
Format/Info                              : Audio Coding 3
Mode extension                           : CM (complete main)
Format settings, Endianness              : Big
Codec ID                                 : A_AC3
Duration                                 : 1h 26mn
Bit rate mode                            : Constant
Bit rate                                 : 640 Kbps
Channel count                            : 6 channels
Channel positions                        : Front: L C R, Side: L R, LFE
Sampling rate                            : 48.0 KHz
Bit depth                                : 16 bits
Compression mode                         : Lossy
Stream size                              : 396 MiB (10%)
Title                                    : AC3 5.1 Dubbing PL
Language                                 : Polish
Default                                  : Yes
Forced                                   : Yes

Audio #2
ID                                       : 3
Format                                   : AC-3
Format/Info                              : Audio Coding 3
Mode extension                           : CM (complete main)
Format settings, Endianness              : Big
Codec ID                                 : A_AC3
Duration                                 : 1h 26mn
Bit rate mode                            : Constant
Bit rate                                 : 384 Kbps
Channel count                            : 6 channels
Channel positions                        : Front: L C R, Side: L R, LFE
Sampling rate                            : 48.0 KHz
Bit depth                                : 16 bits
Compression mode                         : Lossy
Stream size                              : 237 MiB (6%)
Title                                    : AC3 5.1 ENG
Language                                 : English
Default                                  : No
Forced                                   : No

Text #1
ID                                       : 4
Format                                   : UTF-8
Codec ID                                 : S_TEXT/UTF8
Codec ID/Info                            : UTF-8 Plain Text
Title                                    : napisy PL 2D.srt
Language                                 : Polish
Default                                  : No
Forced                                   : No

Text #2
ID                                       : 5
Format                                   : UTF-8
Codec ID                                 : S_TEXT/UTF8
Codec ID/Info                            : UTF-8 Plain Text
Title                                    : napisy ENG 2D.srt
Language                                 : English
Default                                  : No
Forced                                   : No

Text #3
ID                                       : 6
Format                                   : PGS
Muxing mode                              : zlib
Codec ID                                 : S_HDMV/PGS
Codec ID/Info                            : The same subtitle format used on BDs/HD-DVDs
Title                                    : napisy PL 3D.sup
Language                                 : Polish
Default                                  : No
Forced                                   : No

Text #4
ID                                       : 7
Format                                   : PGS
Muxing mode                              : zlib
Codec ID                                 : S_HDMV/PGS
Codec ID/Info                            : The same subtitle format used on BDs/HD-DVDs
Title                                    : napisy ENG 3D.sup
Language                                 : English
Default                                  : No
Forced                                   : No

Source:
A/V-BDRemux 2D/3D
Dubbing PL - BD
Thanks - Sonda


ScreenyScreen 1: ? Screen 1: ? Screen 1: ? Screen 1: ?
Pliki
 [Pokaż/ukryj Pliki]
(3) files
Ocena N/A
Tracker
Podobne


Komentarze




max3gradus12/11/2016 02.11.21
Dzięki