User:      Hasło:     



User Info
User:
Hasło:
Stwórz kontoOdzyskiwanie hasła


Kategorie


Zwierzogród 3D - Zootopia *2016* [mini-HD 1080p 3D Half Over-Under DualAudio AC3 BluRay x264-SONDA] [Dubbing i Napisy PL] [ENG] [AT-TEAM]


Kategoria: Filmy 3D

Gatunek: Anime / Bajka

Dodał:  PTMANIAC
Data dodania: 
09-07-2016
Rozmiar: 3.96 GB

Seedów: 32
Peerów: 4
Ukończone: 505

Pobrany: 1145

Kondycja:

Pobierz

http://i.imgur.com/hUQGjHQ.jpg



Film w wersji 3D Over-Under.
Do odtworzenia filmu WYMAGANY odpowiedni sprzęt (TV 3D)
===========================================

Kopia mini-HD 1080p = 3,96 GB

gatunek: Animacja,Komedia,Przygodowy
produkcja: USA
premiera: 19 lutego 2016 (Polska) 10 lutego 2016 (świat)
reżyseria: Byron Howard,Rich Moore
scenariusz: Jared Bush,Phil Johnston

http://www.imdb.com/title/tt2948356/



Julia Kamińska ... Judy Hops (polski dubbing)
Paweł Domagała ... Nick Bajer (polski dubbing)
Krzysztof Stelmaszyk ... Komendant Bogo (polski dubbing)
Barbara Kurdej-Szatan ... Wiceburmistrz Obłoczek (polski dubbing)
Sebastian Perdek ... Pazurian Clawhauser (polski dubbing)
Jakub Szydłowski ... Jakimsa (polski dubbing)
Anna Apostolakis-Gluzińska ... Bonnie Hops (polski dubbing)



Zwierzogrodu nie można pomylić z żadnym innym miastem. Jest to jedyna w swoim rodzaju współczesna metropolia zamieszkiwana wyłącznie przez zwierzęta. W Zwierzogrodzie nie jest ważne, jakim stworzeniem jesteś - czy to największym z lwów, czy może malutką ryjówką.
Możesz tam zostać kimkolwiek chcesz. Ale nie wszystkie marzenia spełniają się od razu...Gdy do miasta przybywa ambitna policjantka Judy Hops, szybko przekonuje się, że jako pierwszy królik zatrudniony w miejscowej policji, nie będzie wcale miała łatwego życia. Robi więc wszystko, by udowodnić swoją wartość (i zdobyć upragniony awans). Na jej drodze pojawia się jednak gadatliwy i chytry lis, Nick Bajer. Chcąc wykazać się za wszelką cenę, Judy przyjmuje sprawę, w której musi rozwiązać pewną kryminalną zagadkę. Jej partnerem w śledztwie zostaje nie kto inny jak wygadany i szczwany Nick&

Storyline:

From the largest elephant to the smallest shrew, the city of Zootopia is a mammal metropolis where various animals live and thrive. When Judy Hopps becomes the first rabbit to join the police force, she quickly learns how tough it is to enforce the law. Determined to prove herself, Judy jumps at the opportunity to solve a mysterious case. Unfortunately, that means working with Nick Wilde, a wily fox who makes her job even harder.



http://i.imgur.com/re8chqo.jpg
http://i.imgur.com/qMubwZ4.jpg
http://i.imgur.com/DDNB7Qg.jpg
http://i.imgur.com/lvgqnsz.jpg




General
Format                                   : Matroska
Format version                           : Version 2
File size                                : 3.96 GiB
Duration                                 : 1h 48mn
Overall bit rate                         : 5 225 Kbps
Movie name                               : Zootopia.3D.2016.PL.HOU.BDRip.1080p.Sonda [*censored*]
Encoded date                             : UTC 2016-07-09 11:56:09
Writing application                      : mkvmerge v5.7.0 ('The Whirlwind') built on Jul  8 2012 20:08:51
Writing library                          : libebml v1.2.3 + libmatroska v1.3.0

Video
ID                                       : 1
Format                                   : AVC
Format/Info                              : Advanced Video Codec
Format profile                           : High@L4.1
Format settings, CABAC                   : Yes
Format settings, ReFrames                : 4 frames
Codec ID                                 : V_MPEG4/ISO/AVC
Duration                                 : 1h 48mn
Bit rate                                 : 4 300 Kbps
Width                                    : 1 920 pixels
Height                                   : 1 080 pixels
Display aspect ratio                     : 16:9 (2.39:1)
Frame rate mode                          : Constant
Frame rate                               : 23.976 fps
Color space                              : YUV
Chroma subsampling                       : 4:2:0
Bit depth                                : 8 bits
Scan type                                : Progressive
Bits/(Pixel*Frame)                       : 0.086
Stream size                              : 3.20 GiB (81%)
Title                                    : Rip by Sonda
Writing library                          : x264
Encoding settings                        : cabac=1 / ref=4 / deblock=1:-1:-1 / rc=2pass
Default                                  : Yes
Forced                                   : No

Audio #1
ID                                       : 2
Format                                   : AC-3
Format/Info                              : Audio Coding 3
Mode extension                           : CM (complete main)
Format settings, Endianness              : Big
Codec ID                                 : A_AC3
Duration                                 : 1h 48mn
Bit rate mode                            : Constant
Bit rate                                 : 448 Kbps
Channel count                            : 6 channels
Channel positions                        : Front: L C R, Side: L R, LFE
Sampling rate                            : 48.0 KHz
Bit depth                                : 16 bits
Compression mode                         : Lossy
Stream size                              : 348 MiB (9%)
Title                                    : AC3 5.1 Dubbing PL
Language                                 : Polish
Default                                  : Yes
Forced                                   : Yes

Audio #2
ID                                       : 3
Format                                   : AC-3
Format/Info                              : Audio Coding 3
Mode extension                           : CM (complete main)
Format settings, Endianness              : Big
Codec ID                                 : A_AC3
Duration                                 : 1h 48mn
Bit rate mode                            : Constant
Bit rate                                 : 448 Kbps
Channel count                            : 6 channels
Channel positions                        : Front: L C R, Side: L R, LFE
Sampling rate                            : 48.0 KHz
Bit depth                                : 16 bits
Compression mode                         : Lossy
Stream size                              : 348 MiB (9%)
Title                                    : AC3 5.1 ENG
Language                                 : English
Default                                  : No
Forced                                   : No

Text #1
ID                                       : 4
Format                                   : UTF-8
Codec ID                                 : S_TEXT/UTF8
Codec ID/Info                            : UTF-8 Plain Text
Title                                    : Napisy PL 2D
Language                                 : Polish
Default                                  : No
Forced                                   : No

Text #2
ID                                       : 5
Format                                   : UTF-8
Codec ID                                 : S_TEXT/UTF8
Codec ID/Info                            : UTF-8 Plain Text
Title                                    : Napisy ENG 2D
Language                                 : English
Default                                  : No
Forced                                   : No

Text #3
ID                                       : 6
Format                                   : PGS
Muxing mode                              : zlib
Codec ID                                 : S_HDMV/PGS
Codec ID/Info                            : The same subtitle format used on BDs/HD-DVDs
Title                                    : Napisy PL 3D
Language                                 : Polish
Default                                  : No
Forced                                   : No

Source:
A/V-Zootopia.2016.1080p.3D.BluRay.AVC.DTS-HD.MA.7.1-RARBG
Dubbing PL - BD CEE
Thanks - Sonda



ScreenyScreen 1: ? Screen 1: ? Screen 1: ? 
Pliki
 [Pokaż/ukryj Pliki]
(5) files
Ocena
Tracker
Podobne


Komentarze


Brak Komentarzy!!!