User:      Hasło:     



User Info
User:
Hasło:
Stwórz kontoOdzyskiwanie hasła


Kategorie


ZZ Top - Tres Hombres (1973) (PBTHAL LP 24-96) [FLAC]


Kategoria: Muzyka Zagraniczna


Dodał:  Beatrix
Data dodania: 
07-12-2020
Rozmiar: 704.77 MB

Seedów: 47
Peerów: 20
Ukończone: 109

Pobrany: 7

Kondycja:

Pobierz



ZZ Top
Tres Hombres (1973)
FLAC LOSSLESS 24bit-96kHz
PBTHAL Vinyl Rip


allmusic.com...

Tres Hombres is the record that brought ZZ Top their first Top Ten record, making them stars in the process. It couldn't have happened to a better record. ZZ Top finally got their low-down, cheerfully sleazy blooze-n-boogie right on this, their third album. As their sound gelled, producer Bill Ham discovered how to record the trio so simply that they sound indestructible, and the group brought the best set of songs they'd ever have to the table. On the surface, there's nothing really special about the record, since it's just a driving blues-rock album from a Texas bar band, but that's what's special about it. It has a filthy groove and an infectious feel, thanks to Billy Gibbons' growling guitars and the steady propulsion of Dusty Hill and Frank Beard's rhythm section. They get the blend of bluesy shuffles, gut-bucket rocking, and off-beat humor just right. ZZ Top's very identity comes from this earthy sound and songs as utterly infectious as "Waitin' for the Bus," "Jesus Just Left Chicago," "Move Me on Down the Line," and the John Lee Hooker boogie "La Grange." In a sense, they kept trying to remake this record from this point on -- what is Eliminator if not Tres Hombres with sequencers and synthesizers? -- but they never got it better than they did here.


foobar2000 1.4.3 / Dynamic Range Meter 1.1.1
log date: 2020-11-10 08:42:10

--------------------------------------------------------------------------------
Analyzed: ZZ Top / Tres Hombres
--------------------------------------------------------------------------------

DR         Peak         RMS     Duration Track
--------------------------------------------------------------------------------



DR12      -1.16 dB   -15.74 dB      2:54 01-Waitin' For The Bus
DR12      -0.70 dB   -14.77 dB      3:29 02-Jesus Just Left Chicago
DR12      -0.77 dB   -14.09 dB      3:26 03-Beer Drinkers & Hell Raisers
DR12      -1.78 dB   -15.38 dB      3:32 04-Master Of Sparks
DR13      -0.96 dB   -16.66 dB      3:17 05-Hot, Blue And Righteous
DR11      -2.13 dB   -14.67 dB      2:31 06-Move Me On Down The Line
DR12      -1.18 dB   -15.61 dB      3:10 07-Precious And Grace
DR12      -0.70 dB   -15.49 dB      3:53 08-La Grange
DR15      -1.11 dB   -18.53 dB      4:07 09-Shiek
DR12      -1.21 dB   -16.38 dB      3:18 10-Have You Heard?


Number of tracks:  10
Official DR value: DR12

Samplerate:        96000 Hz
Channels:          2
Bits per sample:   24
Bitrate:           2902 kbps
Codec:             FLAC
Pliki
 [Pokaż/ukryj Pliki]
(14) files
Ocena N/A
Tracker
Podobne


Komentarze


Brak Komentarzy!!!