User:      Hasło:     



User Info
User:
Hasło:
Stwórz kontoOdzyskiwanie hasła


Kategorie


Księga dżungli 3D / The Jungle Book *2016* [1080p 3D HALF OVER-UNDER AC3 BLURAY X264] [Dubbing i Napisy PL] [Ekipa P-T]


Kategoria: Filmy 3D

Gatunek: Przygodowy

Dodał:  PTMANIAC
Data dodania: 
25-09-2016
Rozmiar: 7.53 GB

Seedów: 20
Peerów: 6
Ukończone: 3

Pobrany: 415

Kondycja:

Pobierz



gatunek: Przygodowy
produkcja: USA
premiera: 15 kwietnia 2016 (Polska) 4 kwietnia 2016 (świat)
reżyseria: Jon Favreau
scenariusz: Justin Marks



"Księga dżungli" to widowiskowy film fabularny na motywach ponadczasowych opowiadań Rudyarda Kiplinga. Dzięki zastosowaniu najnowocześniejszych technik w spektakularny sposób łączy sceny kręcone z udziałem aktorów z obrazami wygenerowanymi komputerowo. Przerażający tygrys Shere Khan, noszący na swym ciele szramy po walce z człowiekiem, postanawia wyeliminować z dżungli wszystko, co uważa za zagrożenie. Wychowany przez rodzinę wilków chłopiec o imieniu Mowgli przestaje być tam mile widziany. Zmuszony do porzucenia jedynego domu, jaki kiedykolwiek miał, Mowgli wyrusza w fascynującą podróż, podczas której odkryje swoje pochodzenie. Jego przewodnikami są pantera Bagheera, która przyjmuje rolę srogiego mentora, oraz niedźwiedź-filozof Baloo. Trójka bohaterów napotyka na swojej drodze stworzenia, które nie zawsze życzą Mowgliemu jak najlepiej. Są to między innymi pyton Kaa oraz podstępny King Louie.



Bernard Lewandowski ... Mowgli (polski dubbing)
Jerzy Kryszak ... Baloo (polski dubbing)
Jan Peszek ... Bagheera (polski dubbing)
Jan Frycz ... Shere Khan (polski dubbing)
Lidia Sadowa ... Raksha (polski dubbing)



Format : Matroska
Format version : Version 2
File size : 7.53 GiB
Duration : 1h 45mn
Overall bit rate : 10.2 Mbps
Movie name : TheJungleBook(2016)3D
Encoded date : UTC 2016-09-12 19:13:57
Writing application : mkvmerge v5.7.0 ('The Whirlwind') built on Jul 8 2012 20:08:51
Writing library : libebml v1.2.3 + libmatroska v1.3.0

Video
ID : 1
Format : AVC
Format/Info : Advanced Video Codec
Format profile : High@L4.1
Format settings, CABAC : Yes
Format settings, ReFrames : 4 frames
Codec ID : V_MPEG4/ISO/AVC
Duration : 1h 45mn
Bit rate : 9 249 Kbps
Width : 1 920 pixels
Height : 1 080 pixels
Display aspect ratio : 16:9
Frame rate mode : Constant
Frame rate : 23.976 (24000/1001) fps
Color space : YUV
Chroma subsampling : 4:2:0
Bit depth : 8 bits
Scan type : Progressive
Bits/(Pixel*Frame) : 0.186
Stream size : 6.72 GiB (89%)
Writing library : x264 core 148 r2638 7599210
Encoding settings : cabac=1 / ref=4 / deblock=1:-1:-1 / rc=2pass
Default : Yes
Forced : No

Audio #1
ID : 2
Format : AC-3
Format/Info : Audio Coding 3
Mode extension : CM (complete main)
Format settings, Endianness : Big
Codec ID : A_AC3
Duration : 1h 45mn
Bit rate mode : Constant
Bit rate : 448 Kbps
Channel(s) : 6 channels
Channel positions : Front: L C R, Side: L R, LFE
Sampling rate : 48.0 KHz
Compression mode : Lossy
Stream size : 340 MiB (4%)
Title : AC3 5.1 Dubbing PL
Language : Polish
Default : Yes
Forced : No

Audio #2
ID : 3
Format : AC-3
Format/Info : Audio Coding 3
Mode extension : CM (complete main)
Format settings, Endianness : Big
Codec ID : A_AC3
Duration : 1h 45mn
Bit rate mode : Constant
Bit rate : 448 Kbps
Channel(s) : 6 channels
Channel positions : Front: L C R, Side: L R, LFE
Sampling rate : 48.0 KHz
Compression mode : Lossy
Stream size : 340 MiB (4%)
Title : AC3 5.1 ENG
Language : English
Default : No
Forced : No

Text #1
ID : 4
Format : UTF-8
Codec ID : S_TEXT/UTF8
Codec ID/Info : UTF-8 Plain Text
Title : napisy srt PL
Language : Polish
Default : No
Forced : No

Text #2
ID : 5
Format : UTF-8
Codec ID : S_TEXT/UTF8
Codec ID/Info : UTF-8 Plain Text
Title : srt ENG
Language : English
Default : No
Forced : No

Text #3
ID : 6
Format : PGS
Muxing mode : zlib
Codec ID : S_HDMV/PGS
Codec ID/Info : Picture based subtitle format used on BDs/HD-DVDs
Title : napisy 3D PL
Language : Polish
Default : No
Forced : No

Text #4
ID : 7
Format : PGS
Muxing mode : zlib
Codec ID : S_HDMV/PGS
Codec ID/Info : Picture based subtitle format used on BDs/HD-DVDs
Title : napisy 3D ENG
Language : English
Default : No
Forced : No
Pliki
 [Pokaż/ukryj Pliki]
(2) files
Ocena N/A
Tracker
Podobne


Komentarze




max3gradus26/09/2016 19.08.43
Dzięki