User:      Hasło:     



User Info
User:
Hasło:
Stwórz kontoOdzyskiwanie hasła


Kategorie


Zakładnik z Wall Street / Money Monster [HQCAM X264-COX] [ENG]


Kategoria: Filmy TS/CAM

Gatunek: Thrillery / Kryminalne

Dodał:  PTMANIAC
Data dodania: 
05-06-2016
Rozmiar: 751.70 MB

Seedów: 19
Peerów: 2
Ukończone: 80106

Pobrany: 52

Kondycja:

Pobierz



Gatunek: Dramat, Thriller
Produkcja: USA
Premiera: 20 maja 2016 (Polska) 7 kwietnia 2016 (świat)
Reżyseria: Jodie Foster
Scenariusz: Alan DiFiore, Jim Kouf, Jamie Linden





"Money Monster" to popularny program telewizyjny, którego gwiazda, Lee Gates (George Clooney), zwany "guru Wall Street", doradza widzom, jak i w co inwestować pieniądze. Kiedy słuchający jego finansowych wskazówek Kyle Budwell (Jack OConnell) traci wszystkie oszczędności, terroryzuje ekipę show i na planie, podczas programu na żywo, grozi Lee śmiercią, jeśli ten nie sprawi, że akcje, w które zainwestował, nie pójdą do góry w ciągu doby. Publiczność telewizyjna zamiera w przerażeniu, oglądalność show rośnie w rekordowym tempie. Ile warte jest życie człowieka.





George Clooney ... Lee Gates
Julia Roberts ... Patty Fenn
Jack O`Connell ... Kyle Budwell





Video
ID : 1
Format : AVC
Format/INFO : Advanced Video Codec
Format profile : High@L4.1
Format settings, CABAC : Yes
Format settings, ReFrames : 3 frames
Codec ID : avc1
Codec ID/INFO : Advanced Video Coding
Duration : 1h 33mn
Bit rate : 1 000 Kbps
Maximum bit rate : 3 736 Kbps
Width : 720 pixels
Height : 352 pixels
Display aspect ratio : 2.045
Frame rate mode : Constant
Frame rate : 29.970 (30000/1001) fps
Original frame rate : 29.970 (29970/1000) fps
Color space : YUV
Chroma subsampling : 4:2:0
Bit depth : 8 bits
Scan type : Progressive
Bits/(Pixel*Frame) : 0.132
Stream size : 664 MiB (88%)

Audio
ID : 2
Format : MPEG Audio
Format version : Version 1
Format profile : Layer 3
Codec ID : 6B
Duration : 1h 33mn
Bit rate mode : Constant
Bit rate : 128 Kbps
Maximum bit rate : 132 Kbps
Channel(s) : 2 channels
Sampling rate : 48.0 KHz
Compression mode : Lossy
Stream size : 85.8 MiB (11%)
Writing library : LAME3.97
Pliki
 [Pokaż/ukryj Pliki]
(3) files
Ocena N/A
Tracker
Podobne


Komentarze


Brak Komentarzy!!!