User:      Hasło:     



User Info
User:
Hasło:
Stwórz kontoOdzyskiwanie hasła


Kategorie


Przesłuchanie Interrogation 3D [2016][BRRip 1080p x264 by alE13 AC3/DTS] [Napisy PL/ENG] [ENG]


Kategoria: Filmy 3D

Gatunek: Thrillery / Kryminalne

Dodał:  kori
Data dodania: 
24-02-2018
Rozmiar: 7.64 GB

Seedów: 3
Peerów: 1
Ukończone: 1

Pobrany: 109

Kondycja:

Pobierz


https://i.imgur.com/kKB87OP.jpg

http://www.imdb.com/title/tt4497338/
http://www.filmweb.pl/film/Interrogation-2016-742033

Film wersji 3D Side by Side.
Plik zawiera Sample.

reżyseria: Stephen Reynolds
scenariusz: Michael FinchAdam Rodin
gatunek: Thriller,Akcja
produkcja: USA
premiera: 20-08-2016
czas:      1h 26min



After the FBI receives a threat that endangers the entire city, an interrogator (Copeland)
and an I.T. specialist (Perry) are plunged into a series of mind games with a criminal
mastermind, desperately racing against time to uncover the villain's true agenda as they fight
to protect thousands of lives. Copeland and Perry deliver a knockout blow in this electrifying
thriller that crackles with edge-of-your-seat suspense.

Seria wybuchów bombowych i groĽba odpalenia kolejnych ładunków staje się preludium
do niebezpiecznej gry w kotka i myszkę pomiędzy agentami FBI i genialnym przestępc±.



Julia Benson, Adam Copeland, Erica Carroll



Interrogation 3D (2016)-*censored*.mkv
Format           : Matroska
Format version       : Version 4 / Version 2
File size          : 7.59 GiB
Duration          : 1 h 26 min
Overall bit rate      : 12.6 Mb/s
Movie name         : Interrogation 3D (2016)-*censored*
Encoded date        : UTC 2017-09-16 04:34:41
Writing application     : mkvmerge v8.1.0 ('Psychedelic Postcard') 64bit
Writing library       : libebml v1.3.1 + libmatroska v1.4.2
Cover            : Yes
Attachments         : Cover.jpg

Video
ID             : 1
Format           : AVC
Format/INFO         : Advanced Video Codec
Format profile       : High@L4.1
Format settings, CABAC   : Yes
Format settings, RefFrames : 2 frames
Codec ID          : V_MPEG4/ISO/AVC
Duration          : 1 h 22 min
Bit rate          : 11.7 Mb/s
Width            : 1 920 pixels
Height           : 1 080 pixels
Display aspect ratio    : 16:9
Frame rate mode       : Constant
Frame rate         : 23.976 (24000/1001) FPS
Color space         : YUV
Chroma subsampling     : 4:2:0
Bit depth          : 8 bits
Scan type          : Progressive
Bits/(Pixel*Frame)     : 0.236
Stream size         : 6.75 GiB (89%)
Title            : Interrogation 3D (2016)-*censored*
Writing library       : x264 core 142
Default           : Yes
Forced           : No
Color range         : Limited
Color primaries       : BT.709
Transfer characteristics  : BT.709
Matrix coefficients     : BT.709

Audio #1
ID             : 2
Format           : DTS
Format/INFO         : Digital Theater Systems
Mode            : 16
Format settings, Endianness : Big
Codec ID          : A_DTS
Duration          : 1 h 22 min
Bit rate mode        : Constant
Bit rate          : 768 kb/s
Channel(s)         : 6 channels
Channel positions      : Front: L C R, Side: L R, LFE
Sampling rate        : 48.0 kHz
Frame rate         : 93.750 FPS (512 SPF)
Bit depth          : 24 bits
Compression mode      : Lossy
Stream size         : 452 MiB (6%)
Title            : Interrogation 3D (2016)-*censored*_DTS
Language          : English
Default           : Yes
Forced           : No

Audio #2
ID             : 3
Format           : AC-3
Format/INFO         : Audio Coding 3
Format settings, Endianness : Big
Codec ID          : A_AC3
Duration          : 1 h 26 min
Bit rate mode        : Constant
Bit rate          : 640 kb/s
Channel(s)         : 6 channels
Channel positions      : Front: L C R, Side: L R, LFE
Sampling rate        : 48.0 kHz
Frame rate         : 31.250 FPS (1536 SPF)
Bit depth          : 16 bits
Compression mode      : Lossy
Stream size         : 395 MiB (5%)
Title            : Interrogation 3D (2016)-*censored*_AC3
Language          : English
Service kind        : Complete Main
Default           : No
Forced           : No

Text #1
ID             : 4
Format           : VobSub
Muxing mode         : zlib
Codec ID          : S_VOBSUB
Codec ID/INFO        : Picture based subtitle format used on DVDs
Duration          : 1 h 20 min
Bit rate          : 12.1 kb/s
Count of elements      : 900
Stream size         : 6.96 MiB (0%)
Title            : Interrogation 3D (2016)-*censored*_VobSub
Language          : Polish
Default           : Yes
Forced           : No

Text #2
ID             : 5
Format           : VobSub
Muxing mode         : zlib
Codec ID          : S_VOBSUB
Codec ID/INFO        : Picture based subtitle format used on DVDs
Duration          : 1 h 20 min
Bit rate          : 11.6 kb/s
Count of elements      : 910
Stream size         : 6.66 MiB (0%)
Title            : Interrogation 3D (2016)-*censored*_VobSub
Language          : English
Default           : No
Forced           : No

Menu
00:00:00.000        : en:00:00:00.000
00:02:16.470        : en:00:02:16.470
00:06:29.222        : en:00:06:29.222
00:15:20.336        : en:00:15:20.336
00:23:00.588        : en:00:23:00.588
00:31:30.472        : en:00:31:30.472
00:40:30.303        : en:00:40:30.303
00:45:42.281        : en:00:45:42.281
00:52:00.576        : en:00:52:00.576
01:03:19.254        : en:01:03:19.254
01:12:36.269        : en:01:12:36.269
01:20:42.713        : en:01:20:42.713*censored*
Pliki
 [Pokaż/ukryj Pliki]
(14) files
Ocena N/A
Tracker
Podobne
Nie znaleziono podobnych tytułów!


Komentarze


Brak Komentarzy!!!