User:      Hasło:     



User Info
User:
Hasło:
Stwórz kontoOdzyskiwanie hasła


Kategorie


Linda Ronstadt - Heart Like A Wheel (1974) (PBTHAL LP 24-96) [FLAC]


Kategoria: Muzyka Zagraniczna


Dodał:  Beatrix
Data dodania: 
10-06-2021
Rozmiar: 660.62 MB

Seedów: 9
Peerów: 0
Ukończone: 10

Pobrany: 6

Kondycja:

Pobierz



Linda Ronstadt
Heart Like A Wheel (1974)
FLAC LOSSLESS 24bit-96kHz
PBTHAL Vinyl Rip


Not my rip. Any questions about the
eqipment used can be found in the
lineage text.


allmusic.com...

Following the same formula as her early records, Heart Like a Wheel doesn't appear to be a great breakthrough on the surface. However, Ronstadt comes into her own on this mix of oldies and contemporary classics. Backed by a fleet of Los Angeles musicians, Ronstadt sings with vigor and passion, helping bring the music alive. But what really makes Heart Like a Wheel a breakthrough is the inventive arrangements that producer Peter Asher, Ronstadt, and the studio musicians have developed. Finding the right note for each song -- whether it's the soulful reworking of "When Will I Be Loved," the hit "You're No Good," or the laid-back folk-rock of "Willing" -- the musicians help turn Heart Like a Wheel into a veritable catalog of Californian soft rock, and it stands as a landmark of '70s mainstream pop/rock.


foobar2000 1.4.3 / Dynamic Range Meter 1.1.1
log date: 2021-01-08 11:36:38

--------------------------------------------------------------------------------
Analyzed: Linda Ronstadt / Heart Like A Wheel
--------------------------------------------------------------------------------

DR         Peak         RMS     Duration Track
--------------------------------------------------------------------------------
DR12      -0.91 dB   -16.01 dB      3:44 01-You're No Good
DR12      -2.04 dB   -16.47 dB      3:27 02-It Doesn't Matter Anymore
DR11      -2.44 dB   -17.28 dB      3:15 03-Faithless Love
DR11      -4.21 dB   -17.36 dB      3:55 04-The Dark End Of The Street
DR11      -6.26 dB   -21.05 dB      3:10 05-Heart Like A Wheel
DR11      -1.72 dB   -14.78 dB      2:06 06-When Will I Be Loved?
DR13      -0.70 dB   -16.25 dB      3:02 07-Willing
DR11      -4.50 dB   -17.80 dB      2:46 08-I Can't Help It (If I'm Still In Love With You)
DR11      -4.80 dB   -19.03 dB      3:10 09-Keep Me From Blowing Away
DR11      -1.90 dB   -17.28 dB      3:09 10-You Can Close Your Eyes

Number of tracks:  10
Official DR value: DR12

Samplerate:        96000 Hz
Channels:          2
Bits per sample:   24
Bitrate:           2888 kbps
Codec:             FLAC

Pliki
 [Pokaż/ukryj Pliki]
(14) files
Ocena N/A
Tracker
Podobne


Komentarze


Brak Komentarzy!!!