User:      Hasło:     



User Info
User:
Hasło:
Stwórz kontoOdzyskiwanie hasła


Kategorie


Słoneczny Patrol - Baywatch S03E07*1989-2001*[TVRip XviD AC3] [Lektor PL]


Kategoria: Seriale Polskie


Dodał:  PTMANIAC
Data dodania: 
29-01-2017
Rozmiar: 399.87 MB

Seedów: 1
Peerów: 1
Ukończone: 2

Pobrany: 17

Kondycja:

Pobierz




Słoneczny patrol - amerykański serial przygodowy, realizowany w latach 1989-2001 z Davidem Hasselhoffem i Pamelą Anderson w głównych rolach.
W początkowej fazie cieszył się dużą popularnością, zwłaszcza w USA i Niemczech
Akcja serialu rozgrywa się na plaży w Południowej Kalifornii.Gwiazda serialu - David Hasselhoff - występuje w roli szefa patrolu dzielnych i atrakcyjnych ratowników.
Wspaniała przygoda, piękne i wysportowane ciała w skąpych strojach kąpielowych, wakacyjne romanse. Dodatkowym atutem serialu są piękne kobiety :
Pamela Anderson, Gena Lee Nolin, Erika Eleniak, Krista Allen i wiele innych.

Pierwszy odcinek: 23 września 1991
Ostatni odcinek: 14 maja 2001
Liczba Sezonów: 11
Gatunek serialu - akcja przygodowy
Kraj produkcji - Stany Zjednoczone

OBSADA :

David Hasselhoff - Mitch Buchannon
Parker Stevenson - Craig Pomeroy
Shawn Weatherly - Jill Riley
Billy Warlock - Eddie Kramer
Erika Eleniak - Shauni McClain Kramer
Brandon Call - Hobie Buchannon
Pamela Anderson - Casey Jean "C.J." Parker
David Charvet - Matt Brody
Jason Brooks - Sean Monroe
Krista Allen - Jenna Avid
Gena Lee Nolin - Neely Capshaw
Nicole Eggert - Roberta "Summer" Quinn
Jeremy Jackson - Hobie Buchannon

Format                         : AVI
Format/INFO                  : Audio Video Interleave
File size                       : 349 MiB
Duration                       : 44mn 47s
Overall bit rate             : 1 090 Kbps
Writing application       : VirtualDubMod 1.5.4.1 (build 2178/release)
Writing library              : VirtualDubMod build 2178/release

Video
ID                                      : 0
Format                              : MPEG-4 Visual
Format profile                    : Advanced Simple@L5
Format settings, BVOP      : 1
Format settings, QPel        : No
Format settings, GMC        : No warppoints
Format settings, Matrix      : Custom
Codec ID                           : XVID
Codec ID/Hint                    : XviD
Duration                            : 44mn 47s
Bit rate                             : 955 Kbps
Width                                : 640 pixels
Height                               : 480 pixels
Display aspect ratio          : 4:3
Frame rate                        : 25.000 fps
Color space                      : YUV
Chroma subsampling         : 4:2:0
Bit depth                            : 8 bits
Scan type                          : Progressive
Compression mode            : Lossy
Bits/(Pixel*Frame)              : 0.124
Stream size                       : 306 MiB (88%)
Writing library                    : XviD 1.2.1 (UTC 2008-12-04)

Audio
ID                                     : 1
Format                             : MPEG Audio
Format version                 : Version 1
Format profile                   : Layer 3
Mode                                : Joint stereo
Mode extension                : MS Stereo
Codec ID                          : 55
Codec ID/Hint                   : MP3
Duration                           : 44mn 47s
Bit rate mode                   : Constant
Bit rate                            : 128 Kbps
Channel count                 : 2 channels
Sampling rate                  : 48.0 KHz
Compression mode         : Lossy
Stream size                     : 41.0 MiB (12%)
Alignment                        : Aligned on interleaves
Interleave, duration         : 80 ms (2.00 video frames)
Interleave, preload duration   : 504 ms
Writing library                        : LAME3.98r
Encoding settings                 : -m j -V 4 -q 2 -lowpass 17 -b 128

*censored*

 
Pliki
 [Pokaż/ukryj Pliki]
(1) file
Ocena N/A
Tracker
Podobne


Komentarze


Brak Komentarzy!!!