User:      Hasło:     



User Info
User:
Hasło:
Stwórz kontoOdzyskiwanie hasła


Kategorie


Dzieciak rządzi 3D - The Boss Baby *2017* (16:9) [1080p 3D Half Over-Under DTS-ES 6 1 AC3 BluRay x264-SONDA] [Dubbing i Napisy PL] [ENG]


Kategoria: Filmy 3D

Gatunek: Anime / Bajka

Dodał:  PTMANIAC
Data dodania: 
23-09-2017
Rozmiar: 7.88 GB

Seedów: 2
Peerów: 2
Ukończone: ---

Pobrany: 83

Kondycja:

Pobierz

[img]https://i.imgur.com/rX9sTQv.jpg[/img]



Film w wersji 3D Over-Under.
Do odtworzenia filmu WYMAGANY odpowiedni sprzęt (TV 3D)
==========================================
UWAGA: Po prawej i lewej stronie obraz został wycięty do 235p,
co umożliwia wyświetlanie na telewizorze pełnoekranowego obrazu
(bez czarnych pasów) w formacie (16:9) bez zmiany proporcji.
Taki zabieg moim zdaniem poprawia dużo bardziej efekt 3D.
Jedyną wadą jest przycięcie obrazu po obu bokach ekranu,
no ale niestety coś za coś:)
Wszystkich chętnych zapraszam do przetestowania !!!!!
================================================




gatunek: Animacja,Komedia
produkcja: USA
premiera: 21 kwietnia 2017 (Polska) 10 marca 2017 (świat)
reżyseria: Tom McGrath
scenariusz: Michael McCullers

http://www.imdb.com/title/tt3874544/



Krzysztof Banaszyk ... Szef Bobas (polski dubbing)
Wojciech Paszkowski ... Francis E. Francis (polski dubbing)
Waldemar Barwiński ... Ted Templeton (polski dubbing)
Lidia Sadowa ... Janice Templeton (polski dubbing)
Michał Czernecki ... Dorosły Tim Templeton (polski dubbing)
Antoni Scardina ... Tim Templeton (polski dubbing)
Jarosław Boberek ... Wizzie / Elvis (polski dubbing)
Krzysztof Szczerbiński ... Eugeniusz (polski dubbing)



Pewnego dnia w życiu siedmioletniego Tima pojawia się młodszy braciszek. Tim natychmiast zdaje sobie sprawę, że ubrany w garnitur, noszący teczkę i zachowujący się jak rasowy biznesmen dzieciak jest zagrożeniem dla jego niezachwianej dotąd pozycji w rodzinnym domu. Gdy Tim postanawia odzyskać utraconą pozycję, natrafia na trop tajemnego spisku, który może zmienić równowagę sił na świecie. Przekonuje się przy tym, że kluczem do tajemnicy jest jego młodszy brat.  Rywale muszą zapomnieć o dzielących ich różnicach, ocalić rodziców, przywrócić porządek na świecie i udowodnić, że więzy rodzinne są siłą, której nic nie jest w stanie pokonać.

Storyline:

Seven-year-old Tim Templeton has always been a boy of an overactive imagination, and for the past seven years, life was all peaches for him, getting all the love and affection from his caring parents. However, life will never be the same and Tim won't be the centre of attention anymore as the arrival of an improbable new brother named Boss Baby, dressed in a black suit complete with a tie and a briefcase, will shortly rob him of all love, as he takes over the whole Templetons' house. Nevertheless, although this may be true, soon, Tim and the new Boss in a diaper will need to put differences aside and join forces, as a sneaky scheme involving the head of Puppy Co. threatens to tilt the balance of power towards their insidiously adorable furry antagonists, not to mention that the next Pet Convention is in only two days.. Brothers, hurry up.



https://i.imgur.com/5VQp6dd.jpg
https://i.imgur.com/w8Wc3je.jpg
https://i.imgur.com/721eHNE.jpg
https://i.imgur.com/rpON6hE.jpg




General
Format version                 : Version 2
File size                      : 7.88 GiB
Duration                       : 1 h 37 min
Overall bit rate               : 11.6 Mb/s
Movie name                     : The.Boss.Baby.3D.2017.PL.HOU.BDRip.1080p(16:9)Sonda
Encoded date                   : UTC 2017-09-23 10:35:13
Writing application            : mkvmerge v5.7.0 ('The Whirlwind') built on Jul  8 2012 20:08:51
Writing library                : libebml v1.2.3 + libmatroska v1.3.0

Video
ID                             : 1
Format                         : AVC
Format/Info                    : Advanced Video Codec
Format profile                 : High@L4.1
Format settings, CABAC         : Yes
Format settings, ReFrames      : 4 frames
Codec ID                       : V_MPEG4/ISO/AVC
Duration                       : 1 h 37 min
Bit rate                       : 9 000 kb/s
Width                          : 1 920 pixels
Height                         : 1 080 pixels
Display aspect ratio           : 16:9
Frame rate mode                : Constant
Frame rate                     : 23.976 (24000/1001) FPS
Color space                    : YUV
Chroma subsampling             : 4:2:0
Bit depth                      : 8 bits
Scan type                      : Progressive
Bits/(Pixel*Frame)             : 0.181
Stream size                    : 6.00 GiB (76%)
Title                          : Rip by Sonda
Writing library                : x264 core 148 r2744 b97ae06
Encoding settings              : cabac=1 / ref=4 / deblock=1:-1:-1 / rc=2pass
Default                        : Yes
Forced                         : No
Color range                    : Limited
Color primaries                : BT.709
Transfer characteristics       : BT.709
Matrix coefficients            : BT.709

Audio #1
ID                             : 2
Format                         : AC-3
Format/Info                    : Audio Coding 3
Format settings, Endianness    : Big
Codec ID                       : A_AC3
Duration                       : 1 h 37 min
Bit rate mode                  : Constant
Bit rate                       : 384 kb/s
Channel(s)                     : 6 channels
Channel positions              : Front: L C R, Side: L R, LFE
Sampling rate                  : 48.0 kHz
Frame rate                     : 31.250 FPS (1536 spf)
Bit depth                      : 16 bits
Compression mode               : Lossy
Stream size                    : 268 MiB (3%)
Title                          : AC3 5.1 Dubbing PL
Language                       : Polish
Service kind                   : Complete Main
Default                        : Yes
Forced                         : Yes

Audio #2
ID                             : 3
Format                         : AC-3
Format/Info                    : Audio Coding 3
Format settings, Endianness    : Big
Codec ID                       : A_AC3
Duration                       : 1 h 37 min
Bit rate mode                  : Constant
Bit rate                       : 640 kb/s
Channel(s)                     : 6 channels
Channel positions              : Front: L C R, Side: L R, LFE
Sampling rate                  : 48.0 kHz
Frame rate                     : 31.250 FPS (1536 spf)
Bit depth                      : 16 bits
Compression mode               : Lossy
Stream size                    : 446 MiB (6%)
Title                          : AC3 5.1 ENG
Language                       : English
Service kind                   : Complete Main
Default                        : No
Forced                         : No

Audio #3
ID                             : 4
Format                         : DTS
Format/Info                    : Digital Theater Systems
Format profile                 : ES Matrix / Core
Mode                           : 16
Format settings, Endianness    : Big
Codec ID                       : A_DTS
Duration                       : 1 h 37 min
Bit rate mode                  : Constant
Bit rate                       : 1 509 kb/s
Channel(s)                     : 7 channels / 6 channels
Channel positions              : Front: L C R, Side: L R, Back: C, LFE / Front: L C R, Side: L R, LFE
Sampling rate                  : 48.0 kHz
Frame rate                     : 93.750 FPS (512 spf)
Bit depth                      : 24 bits
Compression mode               : Lossy
Stream size                    : 1.03 GiB (13%)
Title                          : DTS-ES 6.1 ENG
Language                       : English
Default                        : No
Forced                         : No

Text #1
ID                             : 5
Format                         : UTF-8
Codec ID                       : S_TEXT/UTF8
Codec ID/Info                  : UTF-8 Plain Text
Title                          : napisy PL 2D
Language                       : Polish
Default                        : No
Forced                         : No

Text #2
ID                             : 6
Format                         : UTF-8
Codec ID                       : S_TEXT/UTF8
Codec ID/Info                  : UTF-8 Plain Text
Title                          : napisy ENG 2D
Language                       : English
Default                        : No
Forced                         : No

Text #3
ID                             : 7
Format                         : PGS
Muxing mode                    : zlib
Codec ID                       : S_HDMV/PGS
Codec ID/Info                  : Picture based subtitle format used on BDs/HD-DVDs
Title                          : napisy PL 3D
Language                       : Polish
Default                        : No
Forced                         : No

Text #4
ID                             : 8
Format                         : PGS
Muxing mode                    : zlib
Codec ID                       : S_HDMV/PGS
Codec ID/Info                  : Picture based subtitle format used on BDs/HD-DVDs
Title                          : napisy ENG 3D
Language                       : English
Default                        : No
Forced                         : No

Source:
A/V- BD3D
Dubbing PL - DVD
Thanks - Sonda

ScreenyScreen 1: ? Screen 1: ? Screen 1: ? Screen 1: ?
Pliki
 [Pokaż/ukryj Pliki]
(3) files
Ocena N/A
Tracker
Podobne


Komentarze


Brak Komentarzy!!!