User:      Hasło:     



User Info
User:
Hasło:
Stwórz kontoOdzyskiwanie hasła


Kategorie


13 Hours The Secret Soldiers of Benghazi *2016* [1080p WEB-DL DD5 1 H264-RARBG] [ENG]


Kategoria: Filmy x264/h264

Gatunek: Akcja / Sensacyjny

Dodał:  PTMANIAC
Data dodania: 
27-05-2016
Rozmiar: 4.96 GB

Seedów: 29
Peerów: 16
Ukończone: 66921

Pobrany: 61

Kondycja:

Pobierz

INFO

Produkcja: USA
Gatunek: Dramat, Akcja
Premiera: 12 stycznia 2016 (świat)
Reżyseria: Michael Bay
Scenariusz: Chuck Hogan



OPIS

Film 13 Hours: The Secret Soldiers of Benghazi opowiada o ataku islamskich terrorystów na placówkę dyplomatyczną w Benghazi w Libii, gdzie zginęło wielu Amerykanów na czele z ambasadorem J. Christopherem Stevensem. Film skupia się na sześciu członkach ochrony, którzy dzielnie walczyli, by obronić stacjonujących tam obywateli USA.



OBSADA

John Krasinski .... Jack Silva
Pablo Schreiber .... Kris "Tanto" Paronto
Max Martini .... Mark "Oz" Geist
James Badge Dale .... Tyrone "Rone" Woods
David Denman .... Dave "Boon" Benton
Dominic Fumusa .... John "Tig" Tiegen
Toby Stephens .... Glen "Bub" Doherty
David Costabile .... Bob



DANE TECHNICZNE

Video
ID : 1
Format : AVC
Format/Info : Advanced Video Codec
Format profile : High@L4
Format settings, CABAC : Yes
Format settings, ReFrames : 5 frames
Codec ID : V_MPEG4/ISO/AVC
Duration : 2h 24mn
Bit rate : 4 416 Kbps
Width : 1 908 pixels
Height : 788 pixels
Display aspect ratio : 2.40:1
Frame rate mode : Constant
Frame rate : 23.976 fps
Color space : YUV
Chroma subsampling : 4:2:0
Bit depth : 8 bits
Scan type : Progressive
Bits/(Pixel*Frame) : 0.123
Stream size : 4.47 GiB (90%)
Title : 13.Hours.The.Secret.Soldiers.of.Benghazi.2016.1080p.WEB-DL.DD5.1.H264-RARBG
Language : English
Default : Yes
Forced : No
Color range : Limited
Color primaries : BT.709
Transfer characteristics : BT.709
Matrix coefficients : BT.709

Audio
ID : 2
Format : AC-3
Format/Info : Audio Coding 3
Mode extension : CM (complete main)
Format settings, Endianness : Big
Codec ID : A_AC3
Duration : 2h 24mn
Bit rate mode : Constant
Bit rate : 384 Kbps
Channel(s) : 6 channels
Channel positions : Front: L C R, Side: L R, LFE
Sampling rate : 48.0 KHz
Frame rate : 31.250 fps (1536 spf)
Compression mode : Lossy
Stream size : 398 MiB (8%)
Title : 13.Hours.The.Secret.Soldiers.of.Benghazi.2016.1080p.WEB-DL.DD5.1.H264-RARBG
Language : English
Default : Yes
Forced : No

Text
ID : 3
Format : UTF-8
Codec ID : S_TEXT/UTF8
Codec ID/Info : UTF-8 Plain Text
Language : English
Default : Yes
Forced : No
Pliki
 [Pokaż/ukryj Pliki]
(5) files
Ocena N/A
Tracker
Podobne


Komentarze


Brak Komentarzy!!!