User:      Hasło:     



User Info
User:
Hasło:
Stwórz kontoOdzyskiwanie hasła


Kategorie


Mumia 3D - The Mummy *2017* [PLSUBBED 1080p 3D Half Over-Under DTS-ES 6 1 AC3 BluRay x264-SONDA] [ENG]


Kategoria: Filmy 3D

Gatunek: Sci-Fi / Fantasy

Dodał:  PTMANIAC
Data dodania: 
19-09-2017
Rozmiar: 11.14 GB

Seedów: 1
Peerów: 5
Ukończone: ---

Pobrany: 64

Kondycja:

Pobierz

[img]https://i.imgur.com/T7a0JUA.jpg[/img]



Film w wersji 3D Half Over-Under.
Do odtworzenia filmu WYMAGANY odpowiedni sprzęt (TV 3D)
===========================================
UWAGA: Napisy na stałe wtopione w film. Zapraszam wszystkich chętnych !!!!!!!
*censored*==




gatunek: Fantasy,Przygodowy
produkcja: USA
premiera: 9 czerwca 2017 (Polska) 22 maja 2017 (świat)
reżyseria: Alex Kurtzman
scenariusz: Christopher McQuarrie,David Koepp,Dylan Kussman

http://www.imdb.com/title/tt2345759/



Tom Cruise ... Nick Morton
Russell Crowe ... Dr Henry Jekyll
Annabelle Wallis ... Jenny Halsey
Sofia Boutella ... Ahmanet
Jake Johnson ... Chris Vail
Courtney B. Vance ... Pułkownik Greenway
Marwan Kenzari ... Malik
Simon Atherton ... Krzyżowiec


Przez wieki spoczywająca w grobowcu ukrytym w piaskach pustyni starożytna księżniczka (znana ze „Star Trek: W nieznane” Sofia Boutella), której przeznaczenie nie zdążyło się wypełnić, budzi się w dzisiejszych czasach. Jej złość na niesprawiedliwość, która ją spotkała, rosła przez tysiące lat, przybierając rozmiary wymykające się ludzkiej wyobraźni. Od gorących piachów pustyni, przez tajemnicze labirynty ukryte pod dzisiejszym Londynem Mumia budzi nowy wszechświat bogów i potworów.

Storyline:

Though safely entombed in a crypt deep beneath the unforgiving desert, an ancient princess, whose destiny was unjustly taken from her, is awakened in our current day bringing with her malevolence grown over millennia, and terrors that defy human comprehension.



[img]https://i.imgur.com/Suu0GJu.jpg[/img]
[img]https://i.imgur.com/o934Cz9.jpg[/img]
[img]https://i.imgur.com/fEksQqY.jpg[/img]
[img]https://i.imgur.com/NVRecCU.jpg[/img]




General
Format                      : Matroska
Format version              : Version 2
File size                   : 11.1 GiB
Duration                    : 1 h 50 min
Overall bit rate            : 14.5 Mb/s
Movie name                  : The.Mummy.3D.2017.HOU.BDRip.1080p.Sonda
Encoded date                : UTC 2017-09-19 07:35:40
Writing application         : mkvmerge v5.7.0 ('The Whirlwind') built on Jul  8 2012 20:08:51
Writing library             : libebml v1.2.3 + libmatroska v1.3.0

Video
ID                          : 1
Format                      : AVC
Format/Info                 : Advanced Video Codec
Format profile              : High@L4.1
Format settings, CABAC      : Yes
Format settings, ReFrames   : 4 frames
Codec ID                    : V_MPEG4/ISO/AVC
Duration                    : 1 h 50 min
Bit rate                    : 12.5 Mb/s
Width                       : 1 920 pixels
Height                      : 1 080 pixels
Display aspect ratio        : 16:9 (2.39:1)
Frame rate mode             : Constant
Frame rate                  : 23.976 (24000/1001) FPS
Color space                 : YUV
Chroma subsampling          : 4:2:0
Bit depth                   : 8 bits
Scan type                   : Progressive
Bits/(Pixel*Frame)          : 0.251
Stream size                 : 9.26 GiB (83%)
Title                       : PLSUBBED Rip by Sonda
Writing library             : x264 core 148 r2638 7599210
Encoding settings           : cabac=1 / ref=4 / deblock=1:-1:-1 / rc=abr
Default                     : Yes
Forced                      : No

Audio #1
ID                          : 2
Format                      : AC-3
Format/Info                 : Audio Coding 3
Format settings, Endianness : Big
Codec ID                    : A_AC3
Duration                    : 1 h 50 min
Bit rate mode               : Constant
Bit rate                    : 640 kb/s
Channel(s)                  : 6 channels
Channel positions           : Front: L C R, Side: L R, LFE
Sampling rate               : 48.0 kHz
Frame rate                  : 31.250 FPS (1536 spf)
Bit depth                   : 16 bits
Compression mode            : Lossy
Stream size                 : 504 MiB (4%)
Title                       : AC3 5.1 ENG
Language                    : English
Service kind                : Complete Main
Default                     : Yes
Forced                      : Yes

Audio #2
ID                          : 3
Format                      : DTS
Format/Info                 : Digital Theater Systems
Format profile              : ES Matrix / Core
Mode                        : 16
Format settings, Endianness : Big
Codec ID                    : A_DTS
Duration                    : 1 h 50 min
Bit rate mode               : Constant
Bit rate                    : 1 509 kb/s
Channel(s)                  : 7 channels / 6 channels
Channel positions           : Front: L C R, Side: L R, Back: C, LFE / Front: L C R, Side: L R, LFE
Sampling rate               : 48.0 kHz
Frame rate                  : 93.750 FPS (512 spf)
Bit depth                   : 24 bits
Compression mode            : Lossy
Stream size                 : 1.16 GiB (10%)
Title                       : DTS-ES 6.1 ENG
Language                    : English
Default                     : No
Forced                      : No

Source:
A/V- BDRemux 2D/3D
Thanks - Sonda

ScreenyScreen 1: ? Screen 1: ? Screen 1: ? Screen 1: ?
Pliki
 [Pokaż/ukryj Pliki]
(3) files
Ocena N/A
Tracker
Podobne


Komentarze


Brak Komentarzy!!!