User:      Hasło:     



User Info
User:
Hasło:
Stwórz kontoOdzyskiwanie hasła


Kategorie


Gru, Dru i Minionki 3D - Despicable Me 3 *2017* (16:9) [mini-HD 1080p 3D Half Over-Under DualAudio AC3 BluRay x264-SONDA] [Dubbing i Napisy PL] [ENG]


Kategoria: Filmy 3D

Gatunek: Anime / Bajka

Dodał:  PTMANIAC
Data dodania: 
04-11-2017
Rozmiar: 3.77 GB

Seedów: 1
Peerów: 1
Ukończone: ---

Pobrany: 59

Kondycja:

Pobierz





Film w wersji 3D Over-Under.
Do odtworzenia filmu WYMAGANY odpowiedni sprzęt (TV 3D)
==========================================
UWAGA: Po prawej i lewej stronie obraz został wycięty do 245p,
co umożliwia wyświetlanie na telewizorze pełnoekranowego obrazu
(bez czarnych pasów) w formacie (16:9) bez zmiany proporcji.
Taki zabieg moim zdaniem poprawia dużo bardziej efekt 3D.
Jedyną wadą jest przycięcie obrazu po obu bokach ekranu,
no ale niestety coś za coś:)
Wszystkich chętnych zapraszam do przetestowania !!!!!
=============================================


Kopia mini-HD 1080p = 3,76 GB



gatunek: Animacja,Komedia,Przygodowy
produkcja: USA
premiera: 30 czerwca 2017 (Polska) 14 czerwca 2017 (świat)
reżyseria: Kyle Balda,Pierre Coffin
scenariusz: Ken Daurio,Cinco Paul

http://www.imdb.com/title/tt3469046/



Marek Robaczewski ... Gru (polski dubbing)
Mikołaj Cieślak ... Dru (polski dubbing)
Robert Górski ... Baltazar Bratt (polski dubbing)
Izabella Bukowska ... Lucy (polski dubbing)
Antonina Żbikowska ... Agnes (polski dubbing)
Helena Englert ... Edith (polski dubbing)
Magdalena Wasylik ... Margo (polski dubbing)
Stefan Knothe ... Fritz (polski dubbing)



Niedoszły dziecięcy gwiazdor z lat 80., Balthazar Bratt, ma plan zdominowania całego świata. Para agentów Ligi Antyzłoczyńców, Gru i Lucy, muszą mu w tym przeszkodzić. W międzyczasie główny bohater dowiaduje się, że ma bajecznie bogatego brata bliźniaka Dru, który chciałby pójść w jego ślady.

Storyline:

After he is fired from the Anti-Villain League for failing to take down the latest bad guy to threaten humanity, Gru finds himself in the midst of a major identity crisis. But when a mysterious stranger shows up to inform Gru that he has a long-lost twin brother-a brother who desperately wishes to follow in his twin's despicable footsteps-one former super-villain will rediscover just how good it feels to be bad.











General
Format                                   : Matroska
Format version                           : Version 2
File size                                : 3.77 GiB
Duration                                 : 1h 29mn
Overall bit rate                         : 6 016 Kbps
Movie name                               : Despicable.Me.3.3D.2017.PL.HOU.BDRip.(16:9).1080p.Sonda
Encoded date                             : UTC 2017-11-04 16:14:05
Writing application                      : mkvmerge v5.7.0 ('The Whirlwind') built on Jul  8 2012 20:08:51
Writing library                          : libebml v1.2.3 + libmatroska v1.3.0

Video
ID                                       : 1
Format                                   : AVC
Format/Info                              : Advanced Video Codec
Format profile                           : High@L4.1
Format settings, CABAC                   : Yes
Format settings, ReFrames                : 4 frames
Codec ID                                 : V_MPEG4/ISO/AVC
Duration                                 : 1h 29mn
Bit rate                                 : 4 700 Kbps
Width                                    : 1 920 pixels
Height                                   : 1 080 pixels
Display aspect ratio                     : 16:9
Frame rate mode                          : Constant
Frame rate                               : 23.976 fps
Color space                              : YUV
Chroma subsampling                       : 4:2:0
Bit depth                                : 8 bits
Scan type                                : Progressive
Bits/(Pixel*Frame)                       : 0.095
Stream size                              : 2.89 GiB (77%)
Title                                    : Rip by Sonda
Writing library                          : x264 core 148 r2744 b97ae06
Encoding settings                        : cabac=1 / ref=4 / deblock=1:-1:-1 / rc=2pass
Default                                  : Yes
Forced                                   : No
Color primaries                          : BT.709
Transfer characteristics                 : BT.709
Matrix coefficients                      : BT.709

Audio #1
ID                                       : 2
Format                                   : AC-3
Format/Info                              : Audio Coding 3
Mode extension                           : CM (complete main)
Format settings, Endianness              : Big
Codec ID                                 : A_AC3
Duration                                 : 1h 29mn
Bit rate mode                            : Constant
Bit rate                                 : 640 Kbps
Channel count                            : 6 channels
Channel positions                        : Front: L C R, Side: L R, LFE
Sampling rate                            : 48.0 KHz
Bit depth                                : 16 bits
Compression mode                         : Lossy
Stream size                              : 410 MiB (11%)
Title                                    : AC3 5.1 Dubbing PL
Language                                 : Polish
Default                                  : Yes
Forced                                   : Yes

Audio #2
ID                                       : 3
Format                                   : AC-3
Format/Info                              : Audio Coding 3
Mode extension                           : CM (complete main)
Format settings, Endianness              : Big
Codec ID                                 : A_AC3
Duration                                 : 1h 29mn
Bit rate mode                            : Constant
Bit rate                                 : 640 Kbps
Channel count                            : 6 channels
Channel positions                        : Front: L C R, Side: L R, LFE
Sampling rate                            : 48.0 KHz
Bit depth                                : 16 bits
Compression mode                         : Lossy
Stream size                              : 410 MiB (11%)
Title                                    : AC3 5.1 ENG
Language                                 : English
Default                                  : No
Forced                                   : No

Text #1
ID                                       : 4
Format                                   : UTF-8
Codec ID                                 : S_TEXT/UTF8
Codec ID/Info                            : UTF-8 Plain Text
Title                                    : napisy PL 2D
Language                                 : Polish
Default                                  : No
Forced                                   : No

Text #2
ID                                       : 5
Format                                   : UTF-8
Codec ID                                 : S_TEXT/UTF8
Codec ID/Info                            : UTF-8 Plain Text
Title                                    : napisy ENG 2D
Language                                 : English
Default                                  : No
Forced                                   : No

Text #3
ID                                       : 6
Format                                   : PGS
Muxing mode                              : zlib
Codec ID                                 : S_HDMV/PGS
Codec ID/Info                            : The same subtitle format used on BDs/HD-DVDs
Title                                    : napisy PL 3D
Language                                 : Polish
Default                                  : No
Forced                                   : No

Text #4
ID                                       : 7
Format                                   : PGS
Muxing mode                              : zlib
Codec ID                                 : S_HDMV/PGS
Codec ID/Info                            : The same subtitle format used on BDs/HD-DVDs
Title                                    : napisy ENG 3D
Language                                 : English
Default                                  : No
Forced                                   : No

Source:
A/V-BDRemux 2D/3D
Dubbing PL - BD
Thanks - Sonda


ScreenyScreen 1: ? Screen 1: ? Screen 1: ? Screen 1: ?
Pliki
 [Pokaż/ukryj Pliki]
(3) files
Ocena N/A
Tracker
Podobne


Komentarze


Brak Komentarzy!!!