User:      Hasło:     



User Info
User:
Hasło:
Stwórz kontoOdzyskiwanie hasła


Kategorie


Rings *2017* [1080p BluRay x264-DRONES] [ENG]


Kategoria: Filmy BluRay/HDTV 1080p

Gatunek: Horror

Dodał:  PTMANIAC
Data dodania: 
21-04-2017
Rozmiar: 7.66 GB

Seedów: 1921
Peerów: 1830
Ukończone: 7248

Pobrany: 120

Kondycja:

Pobierz



Produkcja: USA
Gatunek: Horror
Premiera: 3 lutego 2017 (Polska), 1 lutego 2017 (świat)
Reżyseria: F. Javier Gutiérrez
Scenariusz: David Loucka, Jacob Estes, Akiva Goldsman




Nowy rozdział znakomitej i przerażającej serii horrorów. Młoda kobieta, martwiąc się o swego chłopaka, zafascynowanego informacjami o tajemniczym wideo, po obejrzeniu którego giną ludzie, decyduje się obejrzeć film za niego. Wkrótce odkrywa przerażającą prawdę: informacje są prawdziwe, a wideo zawiera tajemniczy przekaz...




★ Matilda Anna Ingrid Lutz .... Julia
★ Alex Roe .... Holt
★ Johnny Galecki .... Gabriel
★ Vincent D`Onofrio .... Burke
★ Aimee Teegarden .... Skye
★ Bonnie Morgan .... Samara
★ Chuck David Willis .... Blue
★ Patrick R. Walker .... Jamal




Visual : 1920x1080 9211Kbps 23.976
Acoustic : English DTS 1509Kbps 6ch
Textual : English
Target Size : 7834MB

Video
ID : 1
Format : AVC
Format/Info : Advanced Video Codec
Format profile : High@L4.1
Format settings, CABAC : Yes
Format settings, ReFrames : 4 frames
Codec ID : V_MPEG4/ISO/AVC
Duration : 1h 42mn
Bit rate : 9 211 Kbps
Width : 1 920 pixels
Height : 1 080 pixels
Display aspect ratio : 16:9
Frame rate mode : Constant
Frame rate : 23.976 fps
Color space : YUV
Chroma subsampling : 4:2:0
Bit depth : 8 bits
Scan type : Progressive
Bits/(Pixel*Frame) : 0.185
Stream size : 6.57 GiB (86%)

Audio
ID : 2
Format : DTS
Format/Info : Digital Theater Systems
Mode : 16
Format settings, Endianness : Big
Codec ID : A_DTS
Duration : 1h 42mn
Bit rate mode : Constant
Bit rate : 1 509 Kbps
Channel(s) : 6 channels
Channel positions : Front: L C R, Side: L R, LFE
Sampling rate : 48.0 KHz
Frame rate : 93.750 fps (512 spf)
Bit depth : 24 bits
Compression mode : Lossy
Stream size : 1.08 GiB (14%)
Language : English
Default : Yes
Forced : No
Pliki
 [Pokaż/ukryj Pliki]
(6) files
Ocena N/A
Tracker
Podobne


Komentarze




Dezerter3327/04/2017 21.51.40
http://mega-torrenty.pl/details.php?id=96f5ff95477df134d54f7bd957ec0ac0a9a97498
sylwec127/04/2017 20.56.30
czy są może jakieś napisy?