User:      Hasło:     



User Info
User:
Hasło:
Stwórz kontoOdzyskiwanie hasła


Kategorie


Wonder Woman 3D *2017* [1080p 3D Half Over-Under DTS-HD MA 5 1 AC3 BluRay x264-SONDA] [Dubbing i Napisy PL] [ENG]


Kategoria: Filmy 3D

Gatunek: Sci-Fi / Fantasy

Dodał:  PTMANIAC
Data dodania: 
18-09-2017
Rozmiar: 17.46 GB

Seedów: 0
Peerów: 2
Ukończone: 151

Pobrany: 134

Kondycja:

Pobierz

[img]https://i.imgur.com/CVAE18e.jpg[/img]



Film w wersji 3D Half Over-Under.
Do odtworzenia filmu WYMAGANY odpowiedni sprzęt (TV 3D)
===========================================



gatunek: Akcja,Sci-Fi
produkcja: Chiny,Hongkong,Kanada,Nowa Zelandia,USA,Wielka Brytania,Włochy
premiera: 2 czerwca 2017 (Polska) 15 maja 2017 (świat)
reżyseria: Patty Jenkins
scenariusz: Allan Heinberg

http://www.imdb.com/title/tt0451279/



Olga Bołądź ... Diana Prince / Wonder Woman (polski dubbing)
Kamil Kula ... Steve Trevor (polski dubbing)
Magdalena Cielecka ... Królowa Hipolita (polski dubbing)
Joanna Węgrzynowska-Cybińska ... Generał Antiope (polski dubbing)
Krzysztof Cybiński ... Sir Patrick (polski dubbing)
Jakub Wieczorek ... Generał Erich Ludendorff (polski dubbing)
Klementyna Umer ... Maru / Doktor Poison (polski dubbing)
Szymon Kuśmider ... Charlie (polski dubbing)



Zanim stała się Wonder Woman, była Dianą, księżniczką Amazonek wyszkoloną na niepokonaną wojowniczkę. Wychowała się na odległej, rajskiej wyspie. Pewnego dnia rozbił się tam amerykański pilot, który opowiedział Dianie o wielkim konflikcie ogarniającym świat. Księżniczka porzuciła więc swój dom przekonana, że może powstrzymać zagrożenie. W walce u boku ludzi, w wojnie ostatecznej, Diana odkrywa pełnię swojej mocy... i swoje prawdziwe przeznaczenie.

Storyline:

Diana, princess of the Amazons, trained to be an unconquerable warrior. Raised on a sheltered island paradise, when a pilot crashes on their shores and tells of a massive conflict raging in the outside world, Diana leaves her home, convinced she can stop the threat. Fighting alongside man in a war to end all wars, Diana will discover her full powers and her true destiny.



[img]https://i.imgur.com/NZzH6Up.jpg[/img]
[img]https://i.imgur.com/hbFnZBX.jpg[/img]
[img]https://i.imgur.com/9TXybVV.jpg[/img]
[img]https://i.imgur.com/0htnbti.jpg[/img]




General
Format                      : Matroska
Format version              : Version 2
File size                   : 17.5 GiB
Duration                    : 2 h 21 min
Overall bit rate            : 17.7 Mb/s
Movie name                  : Wonder.Woman.3D.2017.PL.HOU.BDRip.1080p.Sonda
Encoded date                : UTC 2017-09-18 06:55:10
Writing application         : mkvmerge v5.7.0 ('The Whirlwind') built on Jul  8 2012 20:08:51
Writing library             : libebml v1.2.3 + libmatroska v1.3.0

Video
ID                          : 1
Format                      : AVC
Format/Info                 : Advanced Video Codec
Format profile              : High@L4.1
Format settings, CABAC      : Yes
Format settings, ReFrames   : 4 frames
Codec ID                    : V_MPEG4/ISO/AVC
Duration                    : 2 h 21 min
Nominal bit rate            : 12.5 Mb/s
Width                       : 1 920 pixels
Height                      : 1 080 pixels
Display aspect ratio        : 16:9 (2.39:1)
Frame rate mode             : Constant
Frame rate                  : 23.976 (24000/1001) FPS
Color space                 : YUV
Chroma subsampling          : 4:2:0
Bit depth                   : 8 bits
Scan type                   : Progressive
Bits/(Pixel*Frame)          : 0.251
Title                       : Rip by Sonda
Writing library             : x264 core 148 r2638 7599210
Encoding settings           : cabac=1 / ref=4 / deblock=1:-1:-1 / rc=2pass
Default                     : Yes
Forced                      : No

Audio #1
ID                          : 2
Format                      : AC-3
Format/Info                 : Audio Coding 3
Format settings, Endianness : Big
Codec ID                    : A_AC3
Duration                    : 2 h 21 min
Bit rate mode               : Constant
Bit rate                    : 384 kb/s
Channel(s)                  : 6 channels
Channel positions           : Front: L C R, Side: L R, LFE
Sampling rate               : 48.0 kHz
Frame rate                  : 31.250 FPS (1536 spf)
Bit depth                   : 16 bits
Compression mode            : Lossy
Stream size                 : 388 MiB (2%)
Title                       : AC3 5.1 Dubbing PL
Language                    : Polish
Service kind                : Complete Main
Default                     : Yes
Forced                      : Yes

Audio #2
ID                          : 3
Format                      : AC-3
Format/Info                 : Audio Coding 3
Format settings, Endianness : Big
Codec ID                    : A_AC3
Duration                    : 2 h 21 min
Bit rate mode               : Constant
Bit rate                    : 640 kb/s
Channel(s)                  : 6 channels
Channel positions           : Front: L C R, Side: L R, LFE
Sampling rate               : 48.0 kHz
Frame rate                  : 31.250 FPS (1536 spf)
Bit depth                   : 16 bits
Compression mode            : Lossy
Stream size                 : 647 MiB (4%)
Title                       : AC3 5.1 ENG
Language                    : English
Service kind                : Complete Main
Default                     : No
Forced                      : No

Audio #3
ID                          : 4
Format                      : DTS
Format/Info                 : Digital Theater Systems
Format profile              : MA / Core
Mode                        : 16
Format settings, Endianness : Big
Codec ID                    : A_DTS
Duration                    : 2 h 21 min
Bit rate mode               : Variable / Constant
Bit rate                    : 4133 / 1 509 kb/s
Channel(s)                  : 6 channels
Channel positions           : Front: L C R, Side: L R, LFE
Sampling rate               : 48.0 kHz
Frame rate                  : 93.750 FPS (512 spf)
Bit depth                   : 24 bits
Compression mode            : Lossless / Lossy
Title                       : DTS-HD MA 5.1
Language                    : English
Default                     : No
Forced                      : No

Text #1
ID                          : 5
Format                      : UTF-8
Codec ID                    : S_TEXT/UTF8
Codec ID/Info               : UTF-8 Plain Text
Title                       : napisy PL 2D
Language                    : Polish
Default                     : No
Forced                      : No

Text #2
ID                          : 6
Format                      : UTF-8
Codec ID                    : S_TEXT/UTF8
Codec ID/Info               : UTF-8 Plain Text
Title                       : napisy ENG 2D
Language                    : English
Default                     : No
Forced                      : No

Text #3
ID                          : 7
Format                      : PGS
Muxing mode                 : zlib
Codec ID                    : S_HDMV/PGS
Codec ID/Info               : Picture based subtitle format used on BDs/HD-DVDs
Title                       : napisy PL 3D
Language                    : Polish
Default                     : No
Forced                      : No

Text #4
ID                          : 8
Format                      : PGS
Muxing mode                 : zlib
Codec ID                    : S_HDMV/PGS
Codec ID/Info               : Picture based subtitle format used on BDs/HD-DVDs
Title                       : napisy ENG 3D
Language                    : English
Default                     : No
Forced                      : No

Source:
A/V- BDRemux 2D/3D
Dubbing PL - iTunes
Thanks - Sonda
ScreenyScreen 1: ? Screen 1: ? Screen 1: ? Screen 1: ?
Pliki
 [Pokaż/ukryj Pliki]
(3) files
Ocena N/A
Tracker
Podobne


Komentarze




Andrzej5509/09/2018 11.03.51
Bez sensu ściągać kilka dni żeby na koniec się okazało że to żadne 3D. Po co tak ludzie robią?