User:      Hasło:     



User Info
User:
Hasło:
Stwórz kontoOdzyskiwanie hasła


Kategorie


Jumanji: Przygoda w dżungli Jumanji: Welcome to the Jungle [2017] [BluRay] [1080p] [NAPISY PL] [PROAC]


Kategoria: Filmy BluRay/HDTV 1080p

Gatunek: Przygodowy

Dodał:  kori
Data dodania: 
18-03-2018
Rozmiar: 1.91 GB

Seedów: 6
Peerów: 0
Ukończone: ---

Pobrany: 60

Kondycja:

Pobierz

Jumanji: Przygoda w dżungli - Jumanji: Welcome to the Jungle (2017) [BluRay] [1080p] [NAPISY PL] [PROAC]

http://www.filmweb.pl/film/Jumanji%3A+Przygoda+w+d%C5%BCungli-2017-717250
http://www.imdb.com/title/tt2283362/
https://www.youtube.com/watch?v=8CzkaEX3gPc

Tytuł: Jumanji: Welcome to the Jungle / Jumanji: Przygoda w dżungli
Ocena: IMDB - 7.2/10 (80199), Filmweb - 7.1/10 (11645)
Produkcja: USA
Gatunek: Akcja, Przygodowy, Komedia
Czas trwania: 119 min.
Premiera: 29.12.2017 - Polska, 20.12.2017 - Świat
Reżyseria: Jake Kasdan
Scenariusz: Chris McKenna, Erik Sommers, Jeff Pinkner, Scott Rosenberg

Kiedy dzieciaki odkrywają starą konsolę gier wideo z grą "Jumanji", o której nigdy dotąd nie słyszały,
natychmiast przenoszą się w świat niebezpiecznej dżungli. To właśnie w niej dzieje się akcja gry,
a one stają się awatarami postaci, które wybrały: zapalony gracz Spencer staje się odważnym łowcą przygód
(Dwayne Johnson), fan piłki Fridge zamienia się (według własnych słów) w Einsteina (Kevin Hart),
Bethany – popularna dziewczyna z sąsiedztwa – staje się profesorem w średnim wieku (Jack Black),
natomiast niepozorna Martha przybiera postać nieustraszonej wojowniczki (Karen Gillan).
Wkrótce odkrywają, że w Jumanji chodzi nie tylko o grę, ale przede wszystkim o przetrwanie.
Aby wygrać i powrócić do realnego świata, będą musieli wyruszyć w najbardziej niebezpieczną przygodę życia,
odkrywając prawdę o sobie, albo pozostać w świecie gry na zawsze…

Dwayne Johnson .... Spencer
Kevin Hart .... Fridge
Jack Black .... Bethany
Karen Gillan .... Martha
Rhys Darby .... Nigel
Bobby Cannavale .... Van Pelt
Nick Jonas .... Alex
Alex Wolff .... Młody Spencer





Format                      : MPEG-4
Format profile              : Base Media
Codec ID                    : isom (isom/iso2/avc1/mp41)
File size                   : 1.91 GiB
Duration                    : 1 h 59 min
Overall bit rate            : 2 298 kb/s
Writing application         : Lavf58.2.103

Video
ID                          : 1
Format                      : AVC
Format/Info                 : Advanced Video Codec
Format profile              : High@L4.1
Format settings             : CABAC / 4 Ref Frames
Format settings, CABAC      : Yes
Format settings, ReFrames   : 4 frames
Codec ID                    : avc1
Codec ID/Info               : Advanced Video Coding
Duration                    : 1 h 59 min
Bit rate                    : 2 150 kb/s
Width                       : 1 920 pixels
Height                      : 800 pixels
Display aspect ratio        : 2.40:1
Frame rate mode             : Constant
Frame rate                  : 23.976 (24000/1001) FPS
Color space                 : YUV
Chroma subsampling          : 4:2:0
Bit depth                   : 8 bits
Scan type                   : Progressive
Bits/(Pixel*Frame)          : 0.058
Stream size                 : 1.79 GiB (94%)
Writing library             : x264 core 152

Audio
ID                          : 2
Format                      : AAC
Format/Info                 : Advanced Audio Codec
Format profile              : LC
Codec ID                    : mp4a-40-2
Duration                    : 1 h 59 min
Bit rate mode               : Constant
Bit rate                    : 144 kb/s
Channel(s)                  : 2 channels
Channel positions           : Front: L R
Sampling rate               : 48.0 kHz
Frame rate                  : 46.875 FPS (1024 SPF)
Compression mode            : Lossy
Stream size                 : 121 MiB (6%)
Default                     : Yes
Alternate group             : 1
Pliki
 [Pokaż/ukryj Pliki]
(3) files
Ocena N/A
Tracker
 [Pokaż/ukryj Trackery] 
Podobne


Komentarze


Brak Komentarzy!!!