User:      Hasło:     



User Info
User:
Hasło:
Stwórz kontoOdzyskiwanie hasła


Kategorie


Game of Thrones S08E01 - Winterfell [1080p WEB-DL H 264 DD5 1] [Napisy PL]


Kategoria: Seriale Zagraniczne


Dodał:  Lukarusi
Data dodania: 
15-04-2019
Rozmiar: 3.02 GB

Seedów: 0
Peerów: 0
Ukończone: ---

Pobrany: 76

Kondycja:

Pobierz



produkcja: USA
gatunek: Dramat, Fantasy, Przygodowy
reżyseria: Alan Taylor, Mark Mylod, Jeremy Podeswa, Matt Shakman
scenariusz: David Benioff, D.B. Weiss
zdjęcia: Jonathan Freeman, Robert McLachlan
muzyka: Ramin Djawadi
czas trwania: ok. 53 min.



Walka o Żelazny Tron się zaostrza. Każdy z mieszkańców krainy Westeros pragnie obj±ć władzę nad siedmioma królestwami. Wszystkie rody, od knuj±cego intrygi Południa, przez barbarzyński Wschód i mroĽn± Północ, tocz± brutaln± walkę o władzę. Każdy z zaangażowanych w rywalizację wie, że nie może kierować się sentymentami, je¶li chce zwyciężyć. Dla wielu z nich d±żenie do objęcia tronu jest także sposobem na przetrwanie.



Peter Dinklage - Tyrion Lannister
Nikolaj Coster-Waldau - Jaime Lannister
Lena Headey - Cersei Lannister
Emilia Clarke - Daenerys Targaryen
Kit Harington - Jon Snow
Aidan Gillen - Petyr Baelish
Liam Cunningham - Davos Seaworth
Indira Varma - Ellaria Sand
Conleth Hill - Varys
John Bradley - Samwell Tarly
Sophie Turner - Sansa Stark
Maisie Williams - Arya Stark



Format : Matroska
Format version : Version 4 / Version 2
File size : 3.02 GiB
Duration : 53 min 4 s
Overall bit rate mode : Variable
Overall bit rate : 8 138 kb/s
Encoded date : UTC 2019-04-15 06:23:36

Video
ID : 1
Format : AVC
Format/Info : Advanced Video Codec
Format profile : High@L4
Format settings : CABAC / 4 Ref Frames
Format settings, CABAC : Yes
Format settings, ReFrames : 4 frames
Codec ID : V_MPEG4/ISO/AVC
Duration : 53 min 4 s
Bit rate mode : Variable
Bit rate : 7 752 kb/s
Maximum bit rate : 12.0 Mb/s
Width : 1 920 pixels
Height : 1 080 pixels
Display aspect ratio : 16:9
Frame rate mode : Constant
Frame rate : 23.976 (24000/1001) FPS
Color space : YUV
Chroma subsampling : 4:2:0
Bit depth : 8 bits
Scan type : Progressive
Bits/(Pixel*Frame) : 0.156
Stream size : 2.87 GiB (95%)
Default : Yes
Forced : Yes
Color range : Limited
Color primaries : BT.709
Transfer characteristics : BT.709
Matrix coefficients : BT.709

Audio
ID : 2
Format : AC-3
Format/Info : Audio Coding 3
Commercial name : Dolby Digital
Codec ID : A_AC3
Duration : 53 min 4 s
Bit rate mode : Constant
Bit rate : 384 kb/s
Channel(s) : 6 channels
Channel layout : L R C LFE Ls Rs
Sampling rate : 48.0 kHz
Frame rate : 31.250 FPS (1536 SPF)
Bit depth : 16 bits
Compression mode : Lossy
Stream size : 146 MiB (5%)
Language : English
Service kind : Complete Main
Default : Yes
Forced : Yes

Text
ID : 3
Format : UTF-8
Codec ID : S_TEXT/UTF8
Codec ID/Info : UTF-8 Plain Text
Duration : 46 min 24 s
Bit rate : 36 b/s
Count of elements : 447
Stream size : 12.3 KiB (0%)
Language : Polish
Default : Yes
Forced : Yes
Pliki
 [Pokaż/ukryj Pliki]
(2) files
Ocena N/A
Tracker
 [Pokaż/ukryj Trackery] 
Podobne


Komentarze




Adapa15/04/2019 14.27.26
Jestem aż zaskoczony, że tak szybko.. Z napisami, ale wszystko działa jak należy. :) Dzięki i wielkie dzięki z góry za kolejne odcinki!!! :)