User:      Hasło:     



User Info
User:
Hasło:
Stwórz kontoOdzyskiwanie hasła


Kategorie


Iron Man *2008*[720p DTS 5 1 AC3 Custom BluRay x264-LEON 345] [Lektor i Napisy PL]


Kategoria: Filmy x264/h264

Gatunek: Sci-Fi / Fantasy

Dodał:  kostas13
Data dodania: 
14-02-2018
Rozmiar: 7.29 GB

Seedów: 0
Peerów: 0
Ukończone: ---

Pobrany: 20

Kondycja:

Pobierz

Na prosbe wilczek112
Iron Man *2008* PL 720p BDRip Custom Leon345
===============================

Produkcja: USA
Gatunek: Akcja, Sci-Fi
Data premiery: 2008-04-30 (Polska), 2008-04-14 (Świat)
Reżyseria: Jon Favreau
Scenariusz: Mark Fergus, Arthur Marcum
Zdjęcia: Matthew Libatique
Muzyka: Ramin Djawadi, John Debney

http://iron.man.filmweb.pl/
http://www.imdb.com/title/tt0371746/



Przygotuj się na nieprzerwaną akcję z Robertem Downey Jr. w Iron Manie, fenomenalnej filmowej przygodzie, na którą czekałeś od dawna! Kiedy obracający się w najwyższych kręgach geniusz-industrialista Tony Stark zostaje pojmany na terytorium wroga, w ucieczce pomaga mu skonstruowana przy pomocy najnowszej technologii zbroja. Teraz, jako bohater nie zrodzony, lecz zbudowany Tony udaje się w misję ocalenia świata! z udziałem takich gwiazd jak Gwyneth Paltrow, Terrence Howard i Jeff Bridges, stanowi fantastyczną, „rozrywkę najwyższych lotów".




Robert Downey Jr. ... Tony Stark / Iron Man
Terrence Howard ... Col. James 'Rhodey' Rhodes
Jeff Bridges ... Obadiah Stane / Iron Monger
Gwyneth Paltrow ... Pepper Potts
Leslie Bibb ... Christine Everhart
Shaun Toub ... Yinsen
Faran Tahir ... Raza
Sayed Badreya ... Abu Bakaar
Bill Smitrovich ... General Gabriel
Clark Gregg ... Agent Phil Coulson
Tim Guinee ... Major Allen
Will Lyman ... Award Ceremony Film Narrator (voice)
Marco Khan ... Insurgent #4
Kevin Foster ... Jimmy
Garret Noel ... Pratt



Complete name : IRON_MAN.2008.PL.720p.BDRip(Leon345).mkv
Format : Matroska
Format version : Version 4 / Version 2
File size : 7.29 GiB
Duration : 2h 6mn
Overall bit rate : 8 284 Kbps
Encoded date : UTC 2015-05-03 18:02:24
Writing application : mkvmerge v7.6.0 ('Garden of Dreams') 64bit built on Feb 8 2015 13:04:34
Writing library : libebml v1.3.1 + libmatroska v1.4.2

Video
ID : 1
Format : AVC
Format/Info : Advanced Video Codec
Format profile : High@L4.1
Format settings, CABAC : Yes
Format settings, ReFrames : 6 frames
Codec ID : V_MPEG4/ISO/AVC
Duration : 2h 6mn
Bit rate : 4 909 Kbps
Width : 1 280 pixels
Height : 532 pixels
Display aspect ratio : 2.40:1
Frame rate mode : Constant
Frame rate : 23.976 fps
Color space : YUV
Chroma subsampling : 4:2:0
Bit depth : 8 bits
Scan type : Progressive
Bits/(Pixel*Frame) : 0.301
Stream size : 4.20 GiB (58%)
Writing library : x264
Encoding settings : cabac=1 / ref=6 / deblock=1:0:0 / rc=2pass
Default : Yes
Forced : No

Audio #1
ID : 2
Format : AC-3
Format/Info : Audio Coding 3
Mode extension : CM (complete main)
Format settings, Endianness : Big
Codec ID : A_AC3
Duration : 2h 6mn
Bit rate mode : Constant
Bit rate : 448 Kbps
Channel(s) : 6 channels
Channel positions : Front: L C R, Side: L R, LFE
Sampling rate : 48.0 KHz
Bit depth : 16 bits
Compression mode : Lossy
Stream size : 404 MiB (5%)
Title : AC3 5.1 Lektor PL Custom
Language : Polish
Default : Yes
Forced : No

Audio #2
ID : 3
Format : AC-3
Format/Info : Audio Coding 3
Mode extension : CM (complete main)
Format settings, Endianness : Big
Codec ID : A_AC3
Duration : 2h 6mn
Bit rate mode : Constant
Bit rate : 640 Kbps
Channel(s) : 6 channels
Channel positions : Front: L C R, Side: L R, LFE
Sampling rate : 48.0 KHz
Bit depth : 16 bits
Compression mode : Lossy
Stream size : 577 MiB (8%)
Title : AC3 5.1 ENG
Language : English
Default : No
Forced : No

Audio #3
ID : 4
Format : DTS
Format/Info : Digital Theater Systems
Mode : 16
Format settings, Endianness : Big
Codec ID : A_DTS
Duration : 2h 6mn
Bit rate mode : Constant
Bit rate : 755 Kbps
Channel(s) : 6 channels
Channel positions : Front: L C R, Side: L R, LFE
Sampling rate : 48.0 KHz
Bit depth : 24 bits
Compression mode : Lossy
Stream size : 680 MiB (9%)
Title : DTS 5.1 Lektor PL Custom
Language : Polish
Default : No
Forced : No

Audio #4
ID : 5
Format : DTS
Format/Info : Digital Theater Systems
Mode : 16
Format settings, Endianness : Big
Codec ID : A_DTS
Duration : 2h 6mn
Bit rate mode : Constant
Bit rate : 1 510 Kbps
Channel(s) : 6 channels
Channel positions : Front: L C R, Side: L R, LFE
Sampling rate : 48.0 KHz
Bit depth : 24 bits
Compression mode : Lossy
Stream size : 1.33 GiB (18%)
Title : DTS 5.1 ENG (from TrueHD)
Language : English
Default : No
Forced : No

Text #1
ID : 6
Format : PGS
Muxing mode : zlib
Codec ID : S_HDMV/PGS
Codec ID/Info : The same subtitle format used on BDs/HD-DVDs
Language : Polish
Default : No
Forced : No

Text #2
ID : 7
Format : PGS
Muxing mode : zlib
Codec ID : S_HDMV/PGS
Codec ID/Info : The same subtitle format used on BDs/HD-DVDs
Language : English
Default : No
Forced : No

Source :
A/V- Iron Man 2008 PL 1080p BluRay CEE AVC TrueHD 5.1
Lektor PL 5.1 - Leon 345 Custom [ BD TrueHD 5.1 ENG + BD AC3 2.0 PL]
Pliki
 [Pokaż/ukryj Pliki]
(4) files
Ocena N/A
Tracker
Podobne


Komentarze




january18/02/2018 13.58.49
Dzięki za wstawkę, wszystkie części są świetne.
wilczek11214/02/2018 20.39.19
Haha a to wszystko na moją prośbę
pentium2714/02/2018 19.56.08
Mega wielkie dzięki kostas, na coś takiego czekałem. Zwłaszcza na dziś
trefl14/02/2018 18.47.55
Film całkiem spoko, zresztą wszystkie części są dobre.